<?xml version="1.0" standalone="no"?>
<!--
Font Awesome Pro 5.10.1 by @fontawesome - https://fontawesome.com
License - https://fontawesome.com/license (Commercial License)
-->
<!DOCTYPE svg PUBLIC "-//W3C//DTD SVG 1.1//EN" "http://www.w3.org/Graphics/SVG/1.1/DTD/svg11.dtd" >
<svg xmlns="http://www.w3.org/2000/svg" xmlns:xlink="http://www.w3.org/1999/xlink" version="1.1">
<metadata>
Created by FontForge 20190112 at Fri Aug  2 14:41:46 2019
 By Robert Madole
Copyright (c) Font Awesome
</metadata>
<defs>
<font id="FontAwesome5Duotone-Solid" horiz-adv-x="512" >
  <font-face 
    font-family="Font Awesome 5 Duotone Solid"
    font-weight="900"
    font-stretch="normal"
    units-per-em="512"
    panose-1="2 0 5 3 0 0 0 0 0 0"
    ascent="448"
    descent="-64"
    bbox="-2 -65.7881 640.083 449.012"
    underline-thickness="25"
    underline-position="-51"
    unicode-range="U+0020-10F89D"
  />
    <missing-glyph />
    <glyph glyph-name="glass-martini-primary" unicode="&#xf000;" 
d="M502 390.4l-214 -214.04v-192.36h56c22.0801 0 40 -17.9199 40 -40c0 -4.41602 -3.58398 -8 -8 -8h-240c-4.41602 0 -8 3.58398 -8 8c0 22.0801 17.9199 40 40 40h56v192.4l-214 214c-21.3203 21.2598 -6.26953 57.5996 23.7803 57.5996h444.399
c30.0508 0 45.1006 -36.3398 23.8203 -57.5996zM256 234.87l149.12 149.13h-298.28z" />
    <glyph glyph-name="music-primary" unicode="&#xf001;" 
d="M512 416v-352c0 -35.3496 -43 -64 -96 -64s-96 28.6504 -96 64s43 64 96 64c8.95898 -0.0478516 23.2949 -1.80371 32 -3.91992v184.64l-256 -75v-233.72c0 -35.3496 -43 -64 -96 -64s-96 28.6602 -96 64s43 64 96 64c8.95898 -0.0478516 23.2949 -1.80371 32 -3.91992
v261.43c0.0146484 12.9463 10.0498 26.6064 22.4004 30.4902l320 94.5c2.58691 0.813477 6.8877 1.47363 9.59961 1.47363c17.6494 0 31.9854 -14.3242 32 -31.9736z" />
    <glyph glyph-name="search-primary" unicode="&#xf002;" 
d="M504.9 -28.7002l-28.3008 -28.2998c-3.86816 -3.8916 -11.4619 -7.05078 -16.9492 -7.05078c-5.48828 0 -13.082 3.15918 -16.9502 7.05078l-99.7002 99.7002c-3.86426 3.87695 -7 11.4668 -7 16.9414v0.0585938v16.2998l36 36h16.2998h0.0585938
c5.47461 0 13.0645 -3.13574 16.9414 -7l99.7002 -99.7002c3.84375 -3.88867 6.96387 -11.4814 6.96387 -16.9492c0 -5.51367 -3.16504 -13.1523 -7.06348 -17.0508z" />
    <glyph glyph-name="heart-primary" unicode="&#xf004;" 
 />
    <glyph glyph-name="star-primary" unicode="&#xf005;" horiz-adv-x="576" 
d="M527.6 276.49c26.2002 -3.7998 36.7002 -36.1006 17.6904 -54.5801l-105.7 -103l25 -145.5c3.56055 -20.7998 -13.0195 -37.4102 -31.5898 -37.4102c-4.33789 0.00488281 -10.9678 1.6582 -14.7998 3.69043l-130.7 68.6992l-130.7 -68.6992
c-3.83594 -2.06152 -10.4844 -3.74121 -14.8398 -3.75c-18.5596 0 -35.1201 16.6592 -31.5596 37.4492l25 145.5l-105.7 103c-19 18.5 -8.5 50.8008 17.7002 54.6006l146.1 21.2998l65.2998 132.4c4.8584 9.85059 17.7158 17.8467 28.7002 17.8467
s23.8418 -7.99609 28.7002 -17.8467l65.2998 -132.4zM370.82 141.23l83.4297 81.2793l-115.25 16.7998l-51.5 104.381l-51.5 -104.381l-115.17 -16.7998l83.4102 -81.2793l-19.71 -114.7l103 54.1602l103 -54.1602z" />
    <glyph glyph-name="user-primary" unicode="&#xf007;" horiz-adv-x="448" 
d="M313.6 160c74.1729 -0.0166016 134.384 -60.2275 134.4 -134.4v-41.5996c0 -26.4961 -21.5039 -48 -48 -48h-352c-26.4961 0 -48 21.5039 -48 48v41.5996c0.0166016 74.1729 60.2275 134.384 134.4 134.4h16.6992c19.1523 -8.83105 51.8115 -15.9971 72.9004 -15.9971
s53.748 7.16602 72.9004 15.9971h16.6992z" />
    <glyph glyph-name="film-primary" unicode="&#xf008;" 
d="M488 384h0.0605469c13.2148 0 23.9395 -10.7246 23.9395 -23.9395v-0.0605469v-336v-0.0605469c0 -13.2148 -10.7246 -23.9395 -23.9395 -23.9395h-0.0605469h-8v20c0 6.62402 -5.37598 12 -12 12h-40c-6.62402 0 -12 -5.37598 -12 -12v-20h-320v20
c0 6.62402 -5.37598 12 -12 12h-40c-6.62402 0 -12 -5.37598 -12 -12v-20h-8h-0.0605469c-13.2148 0 -23.9395 10.7246 -23.9395 23.9395v0.0605469v336v0.0605469c0 13.2148 10.7246 23.9395 23.9395 23.9395h0.0605469h8v-20c0 -6.62402 5.37598 -12 12 -12h40
c6.62402 0 12 5.37598 12 12v20h320v-20c0 -6.62402 5.37598 -12 12 -12h40c6.62402 0 12 5.37598 12 12v20h8zM96 76v40c0 6.62402 -5.37598 12 -12 12h-40c-6.62402 0 -12 -5.37598 -12 -12v-40c0 -6.62402 5.37598 -12 12 -12h40c6.62402 0 12 5.37598 12 12zM96 172v40
c0 6.62402 -5.37598 12 -12 12h-40c-6.62402 0 -12 -5.37598 -12 -12v-40c0 -6.62402 5.37598 -12 12 -12h40c6.62402 0 12 5.37598 12 12zM96 268v40c0 6.62402 -5.37598 12 -12 12h-40c-6.62402 0 -12 -5.37598 -12 -12v-40c0 -6.62402 5.37598 -12 12 -12h40
c6.62402 0 12 5.37598 12 12zM368 60v96c0 6.62402 -5.37598 12 -12 12h-200c-6.62402 0 -12 -5.37598 -12 -12v-96c0 -6.62402 5.37598 -12 12 -12h200c6.62402 0 12 5.37598 12 12zM368 228v96c0 6.62402 -5.37598 12 -12 12h-200c-6.62402 0 -12 -5.37598 -12 -12v-96
c0 -6.62402 5.37598 -12 12 -12h200c6.62402 0 12 5.37598 12 12zM480 76v40c0 6.62402 -5.37598 12 -12 12h-40c-6.62402 0 -12 -5.37598 -12 -12v-40c0 -6.62402 5.37598 -12 12 -12h40c6.62402 0 12 5.37598 12 12zM480 172v40c0 6.62402 -5.37598 12 -12 12h-40
c-6.62402 0 -12 -5.37598 -12 -12v-40c0 -6.62402 5.37598 -12 12 -12h40c6.62402 0 12 5.37598 12 12zM480 268v40c0 6.62402 -5.37598 12 -12 12h-40c-6.62402 0 -12 -5.37598 -12 -12v-40c0 -6.62402 5.37598 -12 12 -12h40c6.62402 0 12 5.37598 12 12z" />
    <glyph glyph-name="th-large-primary" unicode="&#xf009;" 
d="M488 416c13.248 0 24 -10.752 24 -24v-160c0 -13.248 -10.752 -24 -24 -24h-192c-13.248 0 -24 10.752 -24 24v160c0 13.248 10.752 24 24 24h192zM216 416c13.248 0 24 -10.752 24 -24v-160c0 -13.248 -10.752 -24 -24 -24h-192c-13.248 0 -24 10.752 -24 24v160
c0 13.248 10.752 24 24 24h192z" />
    <glyph glyph-name="th-primary" unicode="&#xf00a;" 
d="M488 96c13.248 0 24 -10.752 24 -24v-80c0 -13.248 -10.752 -24 -24 -24h-101.33c-13.248 0 -24 10.752 -24 24v80c0 13.248 10.752 24 24 24h101.33zM306.67 256c13.248 0 24 -10.752 24 -24v-80c0 -13.248 -10.752 -24 -24 -24h-101.34c-13.248 0 -24 10.752 -24 24v80
c0 13.248 10.752 24 24 24h101.34zM488 416c13.248 0 24 -10.752 24 -24v-80c0 -13.248 -10.752 -24 -24 -24h-101.33c-13.248 0 -24 10.752 -24 24v80c0 13.248 10.752 24 24 24h101.33zM125.33 416c13.248 0 24 -10.752 24 -24v-80c0 -13.248 -10.752 -24 -24 -24h-101.33
c-13.248 0 -24 10.752 -24 24v80c0 13.248 10.752 24 24 24h101.33zM125.33 96c13.248 0 24 -10.752 24 -24v-80c0 -13.248 -10.752 -24 -24 -24h-101.33c-13.248 0 -24 10.752 -24 24v80c0 13.248 10.752 24 24 24h101.33z" />
    <glyph glyph-name="th-list-primary" unicode="&#xf00b;" 
d="M125.33 256c13.248 0 24 -10.752 24 -24v-80c0 -13.248 -10.752 -24 -24 -24h-101.33c-13.248 0 -24 10.752 -24 24v80c0 13.248 10.752 24 24 24h101.33zM125.33 416c13.248 0 24 -10.752 24 -24v-80c0 -13.248 -10.752 -24 -24 -24h-101.33
c-13.248 0 -24 10.752 -24 24v80c0 13.248 10.752 24 24 24h101.33zM125.33 96c13.248 0 24 -10.752 24 -24v-80c0 -13.248 -10.752 -24 -24 -24h-101.33c-13.248 0 -24 10.752 -24 24v80c0 13.248 10.752 24 24 24h101.33z" />
    <glyph glyph-name="check-primary" unicode="&#xf00c;" 
d="M264.67 62.4102l-54.5703 -54.8701c-4.12891 -4.16113 -12.2373 -7.53809 -18.0996 -7.53809c-5.79785 0 -13.8438 3.31445 -17.96 7.39844l-0.139648 0.139648l-166.4 167.36c-4.14062 4.1709 -7.50195 12.3271 -7.50195 18.2051
c0 5.87695 3.36133 14.0332 7.50195 18.2041l36.2002 36.4102c4.12695 4.15527 12.2285 7.52734 18.085 7.52734c5.77832 0 13.8047 -3.2959 17.915 -7.35742l0.160156 -0.169922z" />
    <glyph glyph-name="times-primary" unicode="&#xf00d;" horiz-adv-x="384" 
d="M358.79 91.9297c5.08301 -5.08594 9.20898 -15.0488 9.20898 -22.2393c0 -7.19141 -4.12598 -17.1543 -9.20898 -22.2402l-22.2402 -22.2402c-5.08594 -5.08301 -15.0488 -9.20898 -22.2402 -9.20898c-7.19043 0 -17.1533 4.12598 -22.2393 9.20898l-266.86 266.86
c-5.08301 5.08594 -9.20898 15.0488 -9.20898 22.2393c0 7.19141 4.12598 17.1543 9.20898 22.2402l22.2402 22.2402c5.08594 5.08301 15.0488 9.20898 22.2402 9.20898c7.19043 0 17.1533 -4.12598 22.2393 -9.20898z" />
    <glyph glyph-name="search-plus-primary" unicode="&#xf00e;" 
d="M292 268c6.62402 0 12 -5.37598 12 -12v-32c0 -6.62402 -5.37598 -12 -12 -12h-56v-56c0 -6.62402 -5.37598 -12 -12 -12h-32c-6.62402 0 -12 5.37598 -12 12v56h-56c-6.62402 0 -12 5.37598 -12 12v32c0 6.62402 5.37598 12 12 12h56v56c0 6.62402 5.37598 12 12 12h32
c6.62402 0 12 -5.37598 12 -12v-56h56zM505 5.2998c3.84375 -3.88867 6.96387 -11.4814 6.96387 -16.9492c0 -5.51367 -3.16504 -13.1523 -7.06348 -17.0508l-28.3008 -28.2998c-3.86816 -3.8916 -11.4619 -7.05078 -16.9492 -7.05078
c-5.48828 0 -13.082 3.15918 -16.9502 7.05078l-99.7002 99.7002c-3.86426 3.87695 -7 11.4668 -7 16.9414v0.0585938v16.2998l36 36h16.2998h0.0585938c5.47461 0 13.0645 -3.13574 16.9414 -7z" />
    <glyph glyph-name="search-minus-primary" unicode="&#xf010;" 
d="M292 268c6.62402 0 12 -5.37598 12 -12v-32c0 -6.62402 -5.37598 -12 -12 -12h-168c-6.62402 0 -12 5.37598 -12 12v32c0 6.62402 5.37598 12 12 12h168zM505 5.2998c3.84375 -3.88867 6.96387 -11.4814 6.96387 -16.9492
c0 -5.51367 -3.16504 -13.1523 -7.06348 -17.0508l-28.3008 -28.2998c-3.86816 -3.8916 -11.4619 -7.05078 -16.9492 -7.05078c-5.48828 0 -13.082 3.15918 -16.9502 7.05078l-99.7002 99.7002c-3.86426 3.87695 -7 11.4668 -7 16.9414v0.0585938v16.2998l36 36h16.2998
h0.0585938c5.47461 0 13.0645 -3.13574 16.9414 -7z" />
    <glyph glyph-name="power-off-primary" unicode="&#xf011;" 
d="M504 192c0 -136.8 -110.8 -247.7 -247.5 -248c-136.5 -0.299805 -248.3 111 -248.5 247.6v0.431641c0 70.4268 46.502 160.819 103.8 201.769c3.47461 2.49707 9.76758 4.52441 14.0469 4.52441c7.75195 0 17.1387 -5.47656 20.9531 -12.2246l15.7998 -28.0996
c1.69531 -3.02051 3.07129 -8.2832 3.07129 -11.7471c0 -6.6543 -4.33203 -15.2803 -9.6709 -19.2529c-37.5391 -27.8047 -68.0049 -88.2852 -68.0049 -135c0 -92.7363 75.2637 -168 168 -168h0.00488281c91.5996 0 168.6 74.2002 168 169.1
c-0.305664 46.3809 -30.8145 106.413 -68.0996 134c-5.30176 3.9502 -9.60449 12.5215 -9.60449 19.1328c0 3.47363 1.39062 8.74609 3.10449 11.7676l15.7998 28.0996c3.79883 6.74902 13.168 12.2256 20.9131 12.2256c4.22168 0 10.4434 -1.98242 13.8867 -4.4248
c57.4082 -40.8545 104 -131.197 104 -201.659v-0.241211z" />
    <glyph glyph-name="signal-primary" unicode="&#xf012;" horiz-adv-x="640" 
d="M216 160c8.83203 0 16 -7.16797 16 -16v-192c0 -8.83203 -7.16797 -16 -16 -16h-48c-8.83203 0 -16 7.16797 -16 16v192c0 8.83203 7.16797 16 16 16h48zM88 64c8.83203 0 16 -7.16797 16 -16v-96c0 -8.83203 -7.16797 -16 -16 -16h-48c-8.83203 0 -16 7.16797 -16 16v96
c0 8.83203 7.16797 16 16 16h48zM344 256c8.83203 0 16 -7.16797 16 -16v-288c0 -8.83203 -7.16797 -16 -16 -16h-48c-8.83203 0 -16 7.16797 -16 16v288c0 8.83203 7.16797 16 16 16h48zM600 448c8.83203 0 16 -7.16797 16 -16v-480c0 -8.83203 -7.16797 -16 -16 -16h-48
c-8.83203 0 -16 7.16797 -16 16v480c0 8.83203 7.16797 16 16 16h48zM472 352c8.83203 0 16 -7.16797 16 -16v-384c0 -8.83203 -7.16797 -16 -16 -16h-48c-8.83203 0 -16 7.16797 -16 16v384c0 8.83203 7.16797 16 16 16h48z" />
    <glyph glyph-name="cog-primary" unicode="&#xf013;" 
d="M256.35 128.2c-35.2725 0 -63.8994 28.627 -63.8994 63.8994c0 35.2734 28.627 63.9004 63.8994 63.9004c35.2734 0 63.9004 -28.627 63.9004 -63.9004c0 -35.2725 -28.627 -63.8994 -63.9004 -63.8994z" />
    <glyph glyph-name="home-primary" unicode="&#xf015;" horiz-adv-x="576" 
d="M573.32 179.65l-25.5 -31c-1.9873 -2.4209 -6.14258 -4.38477 -9.27441 -4.38477c-2.375 0 -5.79199 1.22461 -7.62598 2.73438l-235.229 193.79c-1.84863 1.49023 -5.27637 2.69922 -7.65039 2.69922s-5.80176 -1.20898 -7.65039 -2.69922l-235.22 -193.79
c-1.83301 -1.50684 -5.24707 -2.72949 -7.62012 -2.72949c-3.12988 0 -7.28223 1.96191 -9.26953 4.37988l-25.5 31c-1.51562 1.83594 -2.74609 5.25781 -2.74609 7.63965c0 3.11914 1.95117 7.2627 4.35547 9.25l253.101 208.46c7.33594 6.03613 21 10.9355 30.5 10.9355
s23.1641 -4.89941 30.5 -10.9355l89.5098 -73.6104v72.6104c0 6.62402 5.37598 12 12 12h56c6.62402 0 12 -5.37598 12 -12v-138.51l83.5996 -68.9102c2.45215 -1.98828 4.44141 -6.16406 4.44141 -9.32031c0 -2.36914 -1.21875 -5.77832 -2.7207 -7.60938z" />
    <glyph glyph-name="clock-primary" unicode="&#xf017;" 
d="M256 440c137 0 248 -111 248 -248s-111 -248 -248 -248s-248 111 -248 248s111 248 248 248zM358.1 131.3c1.28613 1.75 2.3291 4.93359 2.3291 7.10449c0 3.36816 -2.20801 7.71094 -4.92871 9.69531l-63.5 46.2002v137.7c0 6.62402 -5.37598 12 -12 12h-48
c-6.62402 0 -12 -5.37598 -12 -12v-168.3c0.00390625 -3.3584 2.19922 -7.7041 4.90039 -9.7002l88.1992 -64.0996c1.75098 -1.26855 4.92578 -2.29785 7.08789 -2.29785c3.3623 0 7.71289 2.19434 9.71289 4.89746z" />
    <glyph glyph-name="road-primary" unicode="&#xf018;" horiz-adv-x="576" 
d="M573.19 45.3301c9.25977 -21.1904 -5.5 -45.3301 -27.7305 -45.3301h-196.84l-10.3105 97.6797c-0.833984 7.9043 -7.96191 14.3193 -15.9092 14.3203h-68.8008c-7.94727 -0.000976562 -15.0752 -6.41602 -15.9092 -14.3203l-10.3105 -97.6797h-196.84
c-22.2305 0 -36.9902 24.1396 -27.7402 45.3301l139.79 320c4.26953 10.1787 16.6924 18.543 27.7305 18.6699h97.5898l-2.49023 -23.1602c-0.0244141 -0.231445 -0.0439453 -0.607422 -0.0439453 -0.839844c0 -4.41602 3.58398 -8 8 -8h0.0439453h29.1201h0.0439453
c4.41602 0 8 3.58398 8 8c0 0.232422 -0.0195312 0.608398 -0.0439453 0.839844l-2.4502 23.1602h97.5898c11.9199 0 22.75 -7.29004 27.7207 -18.6699zM255.81 269.26c-0.0361328 -0.34668 -0.0654297 -0.911133 -0.0654297 -1.25977
c0 -6.62207 5.37402 -11.998 11.9961 -12h40.54h0.0761719c6.62402 0 12 5.37598 12 12c0 0.348633 -0.0302734 0.913086 -0.0664062 1.25977l-4.59961 43.5801c-0.417969 3.95215 -3.98145 7.16016 -7.95605 7.16016h-0.0439453h-39.29h-0.0449219
c-3.97363 0 -7.53809 -3.20801 -7.95508 -7.16016zM315.64 144c8.83105 0.000976562 15.999 7.16895 15.999 16c0 0.464844 -0.0400391 1.21777 -0.0888672 1.67969l-5.06934 48c-0.834961 7.9043 -7.96289 14.3193 -15.9102 14.3203h-45.1504
c-7.94727 -0.000976562 -15.0752 -6.41602 -15.9102 -14.3203l-5.06934 -48c-0.0488281 -0.461914 -0.0888672 -1.21484 -0.0888672 -1.67969c0 -8.83105 7.16699 -15.999 15.998 -16h55.29z" />
    <glyph glyph-name="download-primary" unicode="&#xf019;" 
d="M488 96h0.0605469c13.2148 0 23.9395 -10.7246 23.9395 -23.9395v-0.0605469v-112v-0.0605469c0 -13.2148 -10.7246 -23.9395 -23.9395 -23.9395h-0.0605469h-464h-0.0605469c-13.2148 0 -23.9395 10.7246 -23.9395 23.9395v0.0605469v112v0.0605469
c0 13.2148 10.7246 23.9395 23.9395 23.9395h0.0605469h146.7l49 -49c8.29004 -8.32227 24.5527 -15.0762 36.2998 -15.0762s28.0098 6.75391 36.2998 15.0762l49 49h146.7zM368 0c8.83203 0 16 7.16797 16 16s-7.16797 16 -16 16s-16 -7.16797 -16 -16s7.16797 -16 16 -16z
M432 0c8.83203 0 16 7.16797 16 16s-7.16797 16 -16 16s-16 -7.16797 -16 -16s7.16797 -16 16 -16z" />
    <glyph glyph-name="inbox-primary" unicode="&#xf01c;" horiz-adv-x="576" 
d="M567.94 204.09c4.44824 -6.67383 8.05859 -18.5996 8.05957 -26.6201v-129.47c0 -26.4961 -21.5039 -48 -48 -48h-480c-26.4961 0 -48 21.5039 -48 48v129.47c0.000976562 8.02051 3.61133 19.9463 8.05957 26.6201l105.69 158.54
c7.86621 11.7959 25.7568 21.3701 39.9355 21.3701h0.00488281h268.619h0.00488281c14.1787 0 32.0693 -9.57422 39.9355 -21.3701zM376 192h123.08l-85.3301 128h-251.5l-85.3301 -128h123.08l32 -64h112z" />
    <glyph glyph-name="redo-primary" unicode="&#xf01e;" 
d="M512 436v-200c0 -6.62402 -5.37598 -12 -12 -12h-200c-6.62402 0 -12 5.37598 -12 12v47.3203c0 6.62402 5.37598 12 12 12h0.580078l147.54 -7.06055l-7.44043 147.19c-0.00683594 0.155273 -0.0126953 0.408203 -0.0126953 0.564453
c0 6.30273 5.1084 11.6719 11.4033 11.9854h47.9297c6.62402 0 12 -5.37598 12 -12z" />
    <glyph glyph-name="sync-primary" unicode="&#xf021;" 
d="M12.2998 238.18c21.6299 114.9 122.51 201.82 243.7 201.82h0.25293c63.2275 0 147.741 -39.1279 188.647 -87.3398l-4 82.7695c-0.0078125 0.157227 -0.0136719 0.413086 -0.0136719 0.570312c0 6.62402 5.37598 12 12 12h0.0332031h47.4102
c6.62402 0 12 -5.37598 12 -12v-200.33c0 -6.62402 -5.37598 -12 -12 -12h-200.33c-6.62402 0 -12 5.37598 -12 12v47.4102v0.0136719c0 6.62402 5.37598 12 12 12c0.157227 0 0.413086 -0.00585938 0.570312 -0.0136719l101.529 -4.87988
c-28.8867 42.9424 -94.3359 77.7939 -146.091 77.7939c-76.5117 0 -153.187 -60.3604 -171.148 -134.734c-1.19824 -5.10547 -6.42578 -9.25391 -11.6699 -9.25977h-49.0908c-6.62305 0 -11.999 5.37598 -11.999 12c0 0.606445 0.0888672 1.58301 0.199219 2.17969z" />
    <glyph glyph-name="list-alt-primary" unicode="&#xf022;" 
d="M128 248c-22.0801 0 -40 17.9199 -40 40s17.9199 40 40 40s40 -17.9199 40 -40s-17.9199 -40 -40 -40zM128 232c22.0801 0 40 -17.9199 40 -40s-17.9199 -40 -40 -40s-40 17.9199 -40 40s17.9199 40 40 40zM128 136c22.0801 0 40 -17.9199 40 -40s-17.9199 -40 -40 -40
s-40 17.9199 -40 40s17.9199 40 40 40z" />
    <glyph glyph-name="lock-primary" unicode="&#xf023;" horiz-adv-x="448" 
d="M448 176v-192c0 -26.4961 -21.5039 -48 -48 -48h-352c-26.4961 0 -48 21.5039 -48 48v192c0 26.4961 21.5039 48 48 48h352c26.4961 0 48 -21.5039 48 -48z" />
    <glyph glyph-name="flag-primary" unicode="&#xf024;" 
d="M120 392v-0.0800781c0 -16.1357 -10.752 -36.708 -24 -45.9199v-388c0 -12.1436 -9.85645 -22 -22 -22h-20c-12.1436 0 -22 9.85645 -22 22v388c-13.248 9.22461 -24 29.8135 -24 45.9561c0 30.9121 25.0879 56 56 56c30.8877 0 55.9756 -25.0684 56 -55.9561z" />
    <glyph glyph-name="headphones-primary" unicode="&#xf025;" 
d="M168 192c13.248 0 24 -10.752 24 -24v-176c0 -13.248 -10.752 -24 -24 -24h-24c-61.8242 0 -112 50.1758 -112 112s50.1758 112 112 112h24zM368 192c61.8242 0 112 -50.1758 112 -112s-50.1758 -112 -112 -112h-24c-13.248 0 -24 10.752 -24 24v176
c0 13.248 10.752 24 24 24h24z" />
    <glyph glyph-name="volume-off-primary" unicode="&#xf026;" horiz-adv-x="256" 
 />
    <glyph glyph-name="volume-down-primary" unicode="&#xf027;" horiz-adv-x="384" 
d="M305.62 259.43c3.7959 6.8457 13.2305 12.4023 21.0586 12.4023c3.39648 0 8.57129 -1.32227 11.5518 -2.95215c25.2676 -13.6943 45.7744 -48.1348 45.7744 -76.875s-20.5068 -63.1797 -45.7744 -76.875c-2.98535 -1.64355 -8.17285 -2.97754 -11.5801 -2.97754
c-13.2529 0 -24.0078 10.7559 -24.0078 24.0078c0 7.83105 5.56738 17.2529 12.4277 21.0303c11.5469 6.13965 20.9189 21.7363 20.9189 34.8145s-9.37207 28.6758 -20.9189 34.8154c-6.86133 3.77539 -12.4307 13.1953 -12.4307 21.0264
c0 3.40918 1.33496 8.59766 2.98047 11.583z" />
    <glyph glyph-name="volume-up-primary" unicode="&#xf028;" horiz-adv-x="576" 
d="M338.23 268.87c25.2686 -13.6924 45.7764 -48.1299 45.7764 -76.8701s-20.5078 -63.1777 -45.7764 -76.8701c-2.98535 -1.64355 -8.17285 -2.97754 -11.5801 -2.97754c-13.2529 0 -24.0078 10.7559 -24.0078 24.0078c0 7.83105 5.56738 17.2529 12.4277 21.0303
c11.5479 6.13672 20.9209 21.7314 20.9209 34.8096s-9.37305 28.6729 -20.9209 34.8096c-6.86035 3.77734 -12.4277 13.1992 -12.4277 21.0303c0 13.252 10.7549 24.0078 24.0078 24.0078c3.40723 0 8.59473 -1.33398 11.5801 -2.97754zM480 192v-0.3125
c0 -56.0576 -38.4248 -125.913 -85.7695 -155.928c-3.24707 -2.06543 -9.00391 -3.74121 -12.8506 -3.74121c-7.30371 0 -16.3838 5.01855 -20.2695 11.2012c-2.0625 3.27441 -3.73535 9.07129 -3.73535 12.9395c0 7.31543 4.99316 16.4639 11.1445 20.4209
c35.041 22.2197 63.4795 73.9277 63.4795 115.42s-28.4385 93.2002 -63.4795 115.42c-6.14941 3.95898 -11.1406 13.1094 -11.1406 20.4238c0 3.86719 1.6709 9.66309 3.73145 12.9365c3.87598 6.19141 12.9512 11.2168 20.2568 11.2168
c3.85254 0 9.61523 -1.68359 12.8633 -3.75684c47.3447 -30.0186 85.7695 -99.8789 85.7695 -155.938v-0.301758zM448.35 428v0.0703125c70.4854 -46.0801 127.69 -151.824 127.69 -236.035s-57.2051 -189.955 -127.69 -236.035
c-3.5332 -2.60254 -9.96289 -4.71484 -14.3516 -4.71484c-13.3584 0 -24.2002 10.8418 -24.2002 24.2002c0 7.66602 5.37305 17.0273 11.9922 20.8945c58.4121 38.1787 105.819 125.798 105.819 195.58s-47.4072 157.402 -105.819 195.58
c-6.10645 3.94727 -11.0615 13.0518 -11.0615 20.3232c0 13.3584 10.8418 24.1992 24.2002 24.1992c4.04395 0 10.0566 -1.81934 13.4209 -4.0625z" />
    <glyph glyph-name="qrcode-primary" unicode="&#xf029;" horiz-adv-x="448" 
d="M416 -32v32h32v-32h-32zM352 -32v32h32v-32h-32zM416 160h32v-128h-96v32h-32v-96h-64v192h96v-32h64v32z" />
    <glyph glyph-name="barcode-primary" unicode="&#xf02a;" 
d="M134.86 0.269531v383.73h17.71v-383.73h-17.71zM197.71 0.269531v383.73h8.86035v-383.73h-8.86035zM0 0v384h18v-384h-18zM54 0.269531v383.73h8.86035v-383.73h-8.86035zM395.14 0.269531v383.73h18v-383.73h-18zM476 384h9.13965v-383.73h-9.13965v383.73z
M251.43 0.269531v383.73h18v-383.73h-18zM332.29 0.269531v383.73h18v-383.73h-18z" />
    <glyph glyph-name="tag-primary" unicode="&#xf02b;" 
 />
    <glyph glyph-name="tags-primary" unicode="&#xf02c;" horiz-adv-x="640" 
d="M497.94 222.06c7.75977 -7.75977 14.0576 -22.9648 14.0576 -33.9395s-6.29785 -26.1797 -14.0576 -33.9404l-204.12 -204.12c-7.76074 -7.75977 -22.9658 -14.0576 -33.9404 -14.0576s-26.1797 6.29785 -33.9395 14.0576l-211.881 211.881
c-7.75977 7.75977 -14.0586 22.9648 -14.0596 33.9395v204.12c0 26.4961 21.5039 48 48 48h204.12c10.9746 -0.000976562 26.1797 -6.2998 33.9395 -14.0596zM112 288c26.4961 0 48 21.5039 48 48s-21.5039 48 -48 48s-48 -21.5039 -48 -48s21.5039 -48 48 -48z" />
    <glyph glyph-name="book-primary" unicode="&#xf02d;" horiz-adv-x="448" 
d="M96 64c-16 0 -32 -12.7998 -32 -32s12.7998 -32 32 -32h328c13.248 0 24 -10.752 24 -24v-16c0 -13.248 -10.752 -24 -24 -24h-328c-52.9922 0 -96 43.0078 -96 96v320c0 52.9922 43.0078 96 96 96h320c17.6641 0 32 -14.3359 32 -32v-328c0 -13.248 -10.752 -24 -24 -24
h-328zM128 314v-20c0 -3.31152 2.68848 -6 6 -6h212c3.31152 0 6 2.68848 6 6v20c0 3.31152 -2.68848 6 -6 6h-212c-3.31152 0 -6 -2.68848 -6 -6zM128 250v-20c0 -3.31152 2.68848 -6 6 -6h212c3.31152 0 6 2.68848 6 6v20c0 3.31152 -2.68848 6 -6 6h-212
c-3.31152 0 -6 -2.68848 -6 -6z" />
    <glyph glyph-name="bookmark-primary" unicode="&#xf02e;" horiz-adv-x="384" 
d="M320 448v-400.57l-95.75 55.8506l-32.25 18.8096l-32.25 -18.8096l-95.75 -55.8506v400.57h256z" />
    <glyph glyph-name="print-primary" unicode="&#xf02f;" 
d="M448 256c35.3281 0 64 -28.6719 64 -64v-112c0 -8.83203 -7.16797 -16 -16 -16h-480c-8.83203 0 -16 7.16797 -16 16v112c0 35.3281 28.6719 64 64 64h384zM432 152c13.248 0 24 10.752 24 24s-10.752 24 -24 24s-24 -10.752 -24 -24s10.752 -24 24 -24z" />
    <glyph glyph-name="camera-primary" unicode="&#xf030;" 
d="M464 352c26.4961 0 48 -21.5039 48 -48v-288c0 -26.4961 -21.5039 -48 -48 -48h-416c-26.4961 0 -48 21.5039 -48 48v288c0 26.4961 21.5039 48 48 48h88l12.2998 32.9004c6.43848 17.167 26.5439 31.0996 44.8779 31.0996h0.0224609h125.5h0.0214844
c18.335 0 38.4404 -13.9326 44.8779 -31.0996l12.4004 -32.9004h88zM256 40c66.1846 0.0546875 119.945 53.8154 120 120c0 66.2402 -53.7598 120 -120 120s-120 -53.7598 -120 -120s53.7598 -120 120 -120z" />
    <glyph glyph-name="font-primary" unicode="&#xf031;" horiz-adv-x="448" 
d="M323.58 32l-23.2998 64h-152.57l-23.2998 -64h-85l130.71 362.31c4.07422 11.9736 17.6465 21.6904 30.2939 21.6904h0.00585938h47.1602h0.00585938c12.6475 0 26.2197 -9.7168 30.2939 -21.6904l130.7 -362.31h-85zM176.85 176h94.3008l-47.1504 129.49z" />
    <glyph glyph-name="bold-primary" unicode="&#xf032;" horiz-adv-x="384" 
d="M64 336h80v-96h-80v96zM64 48v112h80v-112h-80z" />
    <glyph glyph-name="italic-primary" unicode="&#xf033;" horiz-adv-x="320" 
 />
    <glyph glyph-name="text-height-primary" unicode="&#xf034;" horiz-adv-x="576" 
d="M304 416c8.83203 0 16 -7.16797 16 -16v-96c0 -8.83203 -7.16797 -16 -16 -16h-32c-8.83203 0 -16 7.16797 -16 16v32h-56v-304h40c8.83203 0 16 -7.16797 16 -16v-32c0 -8.83203 -7.16797 -16 -16 -16h-160c-8.83203 0 -16 7.16797 -16 16v32
c0 8.83203 7.16797 16 16 16h40v304h-56v-32c0 -8.83203 -7.16797 -16 -16 -16h-32c-8.83203 0 -16 7.16797 -16 16v96c0 8.83203 7.16797 16 16 16h288z" />
    <glyph glyph-name="text-width-primary" unicode="&#xf035;" horiz-adv-x="448" 
d="M432 416c8.83203 0 16 -7.16797 16 -16v-80c0 -8.83203 -7.16797 -16 -16 -16h-32c-8.83203 0 -16 7.16797 -16 16v16h-120v-112h24c8.83203 0 16 -7.16797 16 -16v-32c0 -8.83203 -7.16797 -16 -16 -16h-128c-8.83203 0 -16 7.16797 -16 16v32
c0 8.83203 7.16797 16 16 16h24v112h-120v-16c0 -8.83203 -7.16797 -16 -16 -16h-32c-8.83203 0 -16 7.16797 -16 16v80c0 8.83203 7.16797 16 16 16h416z" />
    <glyph glyph-name="align-left-primary" unicode="&#xf036;" horiz-adv-x="448" 
d="M432 288c8.83203 0 16 -7.16797 16 -16v-32c0 -8.83203 -7.16797 -16 -16 -16h-416c-8.83203 0 -16 7.16797 -16 16v32c0 8.83203 7.16797 16 16 16h416zM432 32c8.83203 0 16 -7.16797 16 -16v-32c0 -8.83203 -7.16797 -16 -16 -16h-416c-8.83203 0 -16 7.16797 -16 16
v32c0 8.83203 7.16797 16 16 16h416z" />
    <glyph glyph-name="align-center-primary" unicode="&#xf037;" horiz-adv-x="448" 
d="M432 288c8.83203 0 16 -7.16797 16 -16v-32c0 -8.83203 -7.16797 -16 -16 -16h-416c-8.83203 0 -16 7.16797 -16 16v32c0 8.83203 7.16797 16 16 16h416zM432 32c8.83203 0 16 -7.16797 16 -16v-32c0 -8.83203 -7.16797 -16 -16 -16h-416c-8.83203 0 -16 7.16797 -16 16
v32c0 8.83203 7.16797 16 16 16h416z" />
    <glyph glyph-name="align-right-primary" unicode="&#xf038;" horiz-adv-x="448" 
d="M16 224c-8.83203 0 -16 7.16797 -16 16v32c0 8.83203 7.16797 16 16 16h416c8.83203 0 16 -7.16797 16 -16v-32c0 -8.83203 -7.16797 -16 -16 -16h-416zM432 32c8.83203 0 16 -7.16797 16 -16v-32c0 -8.83203 -7.16797 -16 -16 -16h-416c-8.83203 0 -16 7.16797 -16 16
v32c0 8.83203 7.16797 16 16 16h416z" />
    <glyph glyph-name="align-justify-primary" unicode="&#xf039;" horiz-adv-x="448" 
d="M432 160c8.83203 0 16 -7.16797 16 -16v-32c0 -8.83203 -7.16797 -16 -16 -16h-416c-8.83203 0 -16 7.16797 -16 16v32c0 8.83203 7.16797 16 16 16h416zM432 416c8.83203 0 16 -7.16797 16 -16v-32c0 -8.83203 -7.16797 -16 -16 -16h-416c-8.83203 0 -16 7.16797 -16 16
v32c0 8.83203 7.16797 16 16 16h416z" />
    <glyph glyph-name="list-primary" unicode="&#xf03a;" 
d="M80 80c8.83203 0 16 -7.16797 16 -16v-64c0 -8.83203 -7.16797 -16 -16 -16h-64c-8.83203 0 -16 7.16797 -16 16v64c0 8.83203 7.16797 16 16 16h64zM80 400c8.83203 0 16 -7.16797 16 -16v-64c0 -8.83203 -7.16797 -16 -16 -16h-64c-8.83203 0 -16 7.16797 -16 16v64
c0 8.83203 7.16797 16 16 16h64zM80 240c8.83203 0 16 -7.16797 16 -16v-64c0 -8.83203 -7.16797 -16 -16 -16h-64c-8.83203 0 -16 7.16797 -16 16v64c0 8.83203 7.16797 16 16 16h64z" />
    <glyph glyph-name="outdent-primary" unicode="&#xf03b;" horiz-adv-x="448" 
d="M100.69 84.71l-96 95.9805c-2.58496 2.58594 -4.68262 7.65332 -4.68262 11.3096s2.09766 8.72363 4.68262 11.3096l96 96c9.97949 10 27.3096 3.01074 27.3096 -11.3096v-191.98c0 -14.2393 -17.3096 -21.3096 -27.3096 -11.3096z" />
    <glyph glyph-name="indent-primary" unicode="&#xf03c;" horiz-adv-x="448" 
d="M27.3096 84.7002c-9.97949 -10 -27.3096 -3.00977 -27.3096 11.2998v192c0 14.2197 17.2695 21.3398 27.3096 11.3203l96 -96c2.58496 -2.58691 4.68262 -7.65332 4.68262 -11.3105c0 -3.65625 -2.09766 -8.72363 -4.68262 -11.3096z" />
    <glyph glyph-name="video-primary" unicode="&#xf03d;" horiz-adv-x="576" 
d="M0 47.7998v288.4c0 26.3857 21.4141 47.7998 47.7998 47.7998h288.4v0c26.3857 0 47.7998 -21.4141 47.7998 -47.7998v-288.4c0 -26.3857 -21.4141 -47.7998 -47.7998 -47.7998h-288.4c-26.3857 0 -47.7998 21.4141 -47.7998 47.7998z" />
    <glyph glyph-name="image-primary" unicode="&#xf03e;" 
d="M464 384c26.4961 0 48 -21.5039 48 -48v-288c0 -26.4961 -21.5039 -48 -48 -48h-416c-26.4961 0 -48 21.5039 -48 48v288c0 26.4961 21.5039 48 48 48h416zM112 328c-30.9121 0 -56 -25.0879 -56 -56s25.0879 -56 56 -56s56 25.0879 56 56s-25.0879 56 -56 56zM448 64
v112l-87.4902 87.5195c-1.94141 1.94922 -5.74902 3.53027 -8.5 3.53027c-2.75 0 -6.55859 -1.58105 -8.5 -3.53027l-135.51 -135.52l-55.4902 55.5195c-1.94141 1.94922 -5.74902 3.53027 -8.5 3.53027c-2.75 0 -6.55859 -1.58105 -8.5 -3.53027l-71.5098 -71.5195v-48h384
z" />
    <glyph glyph-name="pencil-primary" unicode="&#xf040;" 
d="M0.370117 -35.8496l16.1201 67.3594l79 -79l-67.3203 -16.1602c-1.14062 -0.198242 -3.00684 -0.359375 -4.16504 -0.359375s-3.02441 0.161133 -4.16504 0.359375c-10.9482 1.92969 -19.834 12.5186 -19.834 23.6357c0 1.1582 0.163086 3.02441 0.364258 4.16504z
M412.3 237.22c1.93164 -1.93848 3.5 -5.7334 3.5 -8.46973c0 -2.75098 -1.58105 -6.55859 -3.53027 -8.5l-252.27 -252.25v64h-64v64h-64l252.2 252.22c1.95801 1.94629 5.78906 3.52637 8.5498 3.52637s6.5918 -1.58008 8.5498 -3.52637z" />
    <glyph glyph-name="map-marker-primary" unicode="&#xf041;" horiz-adv-x="384" 
 />
    <glyph glyph-name="adjust-primary" unicode="&#xf042;" 
d="M256 344v-304c-83.8096 0 -152 68.1904 -152 152s68.1904 152 152 152z" />
    <glyph glyph-name="tint-primary" unicode="&#xf043;" horiz-adv-x="352" 
d="M176 0c-61.7471 0.0771484 -111.923 50.2529 -112 112c0 8.83203 7.16797 16 16 16s16 -7.16797 16 -16c0.0498047 -44.1104 35.8896 -79.9502 80 -80c8.83203 0 16 -7.16797 16 -16s-7.16797 -16 -16 -16z" />
    <glyph glyph-name="edit-primary" unicode="&#xf044;" horiz-adv-x="576" 
d="M492.8 274.7c1.57324 -1.58008 2.84961 -4.6709 2.84961 -6.90039c0 -2.22852 -1.27637 -5.32031 -2.84961 -6.89941l-218.399 -218.4l-92.8008 -10.2998c-0.59668 -0.0673828 -1.57031 -0.12207 -2.1709 -0.12207c-10.7363 0 -19.4502 8.71387 -19.4502 19.4502
c0 0.601562 0.0546875 1.57422 0.121094 2.17188l10.3008 92.7998l218.399 218.4c1.58008 1.57227 4.6709 2.84863 6.90039 2.84863c2.22852 0 5.32031 -1.27637 6.89941 -2.84863z" />
    <glyph glyph-name="arrows-primary" unicode="&#xf047;" 
d="M128.57 277.29c3.62988 -3.83203 6.57617 -11.2266 6.57617 -16.5049c0 -5.69434 -3.35449 -13.4971 -7.48633 -17.415l-55.6602 -51.3701l55.6396 -51.4102c4.13867 -3.91895 7.49707 -11.7256 7.49707 -17.4248c0 -5.27441 -2.94238 -12.6641 -6.56641 -16.4951
l-0.459961 -0.469727l-10.8301 -10.8398c-3.87988 -3.87793 -11.4805 -7.02441 -16.9648 -7.02441c-5.48535 0 -13.0859 3.14648 -16.9658 7.02441l-74 74c-5.16895 5.17285 -9.36523 15.3066 -9.36523 22.6201c0 7.3125 4.19629 17.4463 9.36523 22.6191l74 74
c3.87988 3.87793 11.4805 7.02441 16.9658 7.02441c5.48438 0 13.085 -3.14648 16.9648 -7.02441l10.8301 -10.8398zM502.62 214.62c5.16992 -5.17285 9.375 -15.2871 9.375 -22.6006c0 -7.3125 -4.19531 -17.4463 -9.36523 -22.6191l-74 -74
c-3.87988 -3.87793 -11.4795 -7.02441 -16.9648 -7.02441s-13.085 3.14648 -16.9648 7.02441l-10.8301 10.8398l-0.459961 0.469727c-3.625 3.83105 -6.56641 11.2207 -6.56641 16.4951c0 5.69922 3.3584 13.5059 7.49609 17.4248l55.6602 51.3701l-55.6699 51.3896
c-4.13867 3.91992 -7.49707 11.7256 -7.49707 17.4258c0 5.27344 2.94238 12.6631 6.56738 16.4941l0.459961 0.470703l10.8301 10.8398c3.87891 3.87695 11.4795 7.02344 16.9648 7.02344c5.48438 0 13.085 -3.14648 16.9648 -7.02344zM341.76 64.1104l10.8799 -10.8301
c3.87793 -3.87988 7.02441 -11.4805 7.02441 -16.9648c0 -5.48535 -3.14648 -13.0859 -7.02441 -16.9658l-74 -74c-5.17285 -5.16895 -15.3066 -9.36523 -22.6201 -9.36523c-7.3125 0 -17.4463 4.19629 -22.6191 9.36523l-74 74
c-3.87793 3.87988 -7.02441 11.4805 -7.02441 16.9658c0 5.48438 3.14648 13.085 7.02441 16.9648l10.8398 10.8496l0.469727 0.459961c3.83105 3.625 11.2207 6.56641 16.4951 6.56641c5.69922 0 13.5059 -3.3584 17.4248 -7.49609l51.3701 -55.6602l51.3701 55.6396
c3.91895 4.13867 11.7256 7.49707 17.4248 7.49707c5.27441 0 12.6641 -2.94238 16.4951 -6.56641zM278.62 438.62l73.9795 -73.9902c3.87793 -3.87988 7.02441 -11.4795 7.02441 -16.9648s-3.14648 -13.085 -7.02441 -16.9648l-10.8398 -10.8301l-0.469727 -0.459961
c-3.83105 -3.625 -11.2207 -6.56641 -16.4951 -6.56641c-5.69922 0 -13.5059 3.3584 -17.4248 7.49609l-51.3701 55.6602l-51.3896 -55.6699c-3.91992 -4.13867 -11.7256 -7.49707 -17.4258 -7.49707c-5.27344 0 -12.6631 2.94238 -16.4941 6.56738l-0.470703 0.459961
l-10.8398 10.8301c-3.87695 3.87891 -7.02344 11.4795 -7.02344 16.9648c0 5.48438 3.14648 13.085 7.02344 16.9648l74 74c5.17285 5.16992 15.3066 9.36523 22.6201 9.36523s17.4473 -4.19531 22.6201 -9.36523z" />
    <glyph glyph-name="step-backward-primary" unicode="&#xf048;" horiz-adv-x="320" 
d="M320 384v-384c0 -27.4004 -31.9004 -41.7002 -52.5 -24.5996l-163.5 150.449v131.37l163.5 151.37c20.5996 17.1006 52.5 2.7998 52.5 -24.5898z" />
    <glyph glyph-name="fast-backward-primary" unicode="&#xf049;" 
d="M512 352v-320c0 -27.4004 -31.9004 -41.7002 -52.5 -24.5996l-171.5 155.29v-130.69c0 -27.4004 -31.9004 -41.7002 -52.5 -24.5996l-139.5 126.319v115.57l139.5 127.3c20.5996 17.1006 52.5 2.7998 52.5 -24.5898v-131.9l171.5 156.49
c20.5996 17.1006 52.5 2.7998 52.5 -24.5898z" />
    <glyph glyph-name="backward-primary" unicode="&#xf04a;" 
d="M11.4805 216.59l192 160c20.6191 17.1602 52.5195 2.75977 52.5195 -24.5898v-320c0 -27.3896 -31.9004 -41.79 -52.5098 -24.5898l-192 160c-6.3418 5.30664 -11.4883 16.3252 -11.4883 24.5938c0 8.26465 5.1416 19.2793 11.4785 24.5859z" />
    <glyph glyph-name="play-primary" unicode="&#xf04b;" horiz-adv-x="448" 
d="M0 -16v416.13c0 41.7998 43.7998 58.2002 72.4004 41.2998l352 -208.1c31.5 -18.5 31.3994 -64.0996 0 -82.5996l-352 -208c-31.7002 -18.8008 -72.4004 3.7998 -72.4004 41.2695z" />
    <glyph glyph-name="pause-primary" unicode="&#xf04c;" horiz-adv-x="448" 
d="M192 368v-352c0 -26.4961 -21.5039 -48 -48 -48h-96c-26.4961 0 -48 21.5039 -48 48v352c0 26.4961 21.5039 48 48 48h96c26.4961 0 48 -21.5039 48 -48z" />
    <glyph glyph-name="stop-primary" unicode="&#xf04d;" horiz-adv-x="448" 
d="M400 416c26.4961 0 48 -21.5039 48 -48v-352c0 -26.4961 -21.5039 -48 -48 -48h-352c-26.4961 0 -48 21.5039 -48 48v352c0 26.4961 21.5039 48 48 48h352zM384 32v320h-320v-320h320z" />
    <glyph glyph-name="forward-primary" unicode="&#xf04e;" 
d="M500.5 216.59c6.33301 -5.3125 11.4727 -16.333 11.4727 -24.5996s-5.13965 -19.2871 -11.4727 -24.6006l-192 -160c-20.5996 -17.1992 -52.5 -2.7998 -52.5 24.6006v320.01c0 27.4004 31.9004 41.7002 52.5 24.5996z" />
    <glyph glyph-name="fast-forward-primary" unicode="&#xf050;" 
d="M416 134.69l-139.5 -127.301c-20.5996 -17.1992 -52.5 -2.7998 -52.5 24.6006v131.899l-171.5 -156.5c-20.5996 -17.1992 -52.5 -2.7998 -52.5 24.6104v320c0 27.4004 31.9004 41.7002 52.5 24.5996l171.5 -155.409v130.81c0 27.4004 31.9004 41.7002 52.5 24.5996
l139.5 -126.409v-115.5z" />
    <glyph glyph-name="step-forward-primary" unicode="&#xf051;" horiz-adv-x="320" 
d="M216 126.77l-163.5 -151.38c-20.5996 -17.0996 -52.5 -2.7998 -52.5 24.6104v384c0 27.4004 31.9004 41.7002 52.5 24.5996l163.5 -150.46v-131.37z" />
    <glyph glyph-name="eject-primary" unicode="&#xf052;" horiz-adv-x="448" 
d="M259.38 400.44l175.94 -192c28.1992 -30.7705 6.26953 -80.4404 -35.3799 -80.4404h-351.891c-41.7295 0 -63.5195 49.7305 -35.3799 80.4404l176 192c7.87402 8.57422 23.7129 15.5342 35.3555 15.5342c11.6416 0 27.4805 -6.95996 35.3545 -15.5342z" />
    <glyph glyph-name="chevron-left-primary" unicode="&#xf053;" horiz-adv-x="320" 
d="M262.85 402.94l22.7002 -22.6504c3.86816 -3.86914 7.00781 -11.4492 7.00781 -16.9199s-3.13965 -13.0518 -7.00781 -16.9199l-210.97 -211.351l-40 40c-3.86621 3.87012 -7.00391 11.4502 -7.00391 16.9199c0 5.4707 3.1377 13.0508 7.00391 16.9209l194.33 194
c3.87988 3.87988 11.4824 7.02832 16.9697 7.02832s13.0898 -3.14844 16.9697 -7.02832z" />
    <glyph glyph-name="chevron-right-primary" unicode="&#xf054;" horiz-adv-x="320" 
d="M91.25 402.94l194.33 -194c3.86816 -3.86914 7.00781 -11.4492 7.00781 -16.9209c0 -5.4707 -3.13965 -13.0508 -7.00781 -16.9199l-40 -40l-211 211.341c-3.87109 3.86719 -7.01172 11.4473 -7.01172 16.9199c0 5.47168 3.14062 13.0518 7.01172 16.9199
l22.7002 22.6494c3.88184 3.8916 11.4932 7.04883 16.9893 7.04883c5.49219 0 13.0996 -3.15332 16.9805 -7.03809z" />
    <glyph glyph-name="plus-circle-primary" unicode="&#xf055;" 
d="M400 164c0 -6.62402 -5.37598 -12 -12 -12h-92v-92c0 -6.62402 -5.37598 -12 -12 -12h-56c-6.62402 0 -12 5.37598 -12 12v92h-92c-6.62402 0 -12 5.37598 -12 12v56c0 6.62402 5.37598 12 12 12h92v92c0 6.62402 5.37598 12 12 12h56c6.62402 0 12 -5.37598 12 -12v-92
h92c6.62402 0 12 -5.37598 12 -12v-56z" />
    <glyph glyph-name="minus-circle-primary" unicode="&#xf056;" 
d="M256 440c137 0 248 -111 248 -248s-111 -248 -248 -248s-248 111 -248 248s111 248 248 248zM400 164v56c0 6.62402 -5.37598 12 -12 12h-264c-6.62402 0 -12 -5.37598 -12 -12v-56c0 -6.62402 5.37598 -12 12 -12h264c6.62402 0 12 5.37598 12 12z" />
    <glyph glyph-name="times-circle-primary" unicode="&#xf057;" 
d="M377.6 126.9c1.94824 -1.94238 3.53027 -5.75 3.53027 -8.5c0 -2.75098 -1.58203 -6.55859 -3.53027 -8.5l-39.5996 -39.5c-1.94141 -1.94824 -5.74902 -3.53027 -8.5 -3.53027s-6.55859 1.58203 -8.5 3.53027l-65 65.5996l-65.0996 -65.5996
c-1.94238 -1.94824 -5.75 -3.53027 -8.5 -3.53027c-2.75098 0 -6.55859 1.58203 -8.5 3.53027l-39.5 39.5996c-1.94824 1.94141 -3.53027 5.74902 -3.53027 8.5s1.58203 6.55859 3.53027 8.5l65.5996 65l-65.5996 65.0996c-1.94824 1.94238 -3.53027 5.75 -3.53027 8.5
c0 2.75098 1.58203 6.55859 3.53027 8.5l39.5996 39.6006c1.94141 1.94824 5.74902 3.5293 8.5 3.5293s6.55859 -1.58105 8.5 -3.5293l65 -65.7002l65.0996 65.5996c1.94238 1.94824 5.75 3.53027 8.5 3.53027c2.75098 0 6.55859 -1.58203 8.5 -3.53027l39.6006 -39.5996
c1.94824 -1.94141 3.5293 -5.74902 3.5293 -8.5s-1.58105 -6.55859 -3.5293 -8.5l-65.7002 -65z" />
    <glyph glyph-name="check-circle-primary" unicode="&#xf058;" 
d="M227.31 60.6904c-2.58594 -2.58496 -7.65332 -4.68262 -11.3096 -4.68262s-8.72363 2.09766 -11.3096 4.68262l-104 104c-2.58496 2.58594 -4.68262 7.65332 -4.68262 11.3096s2.09766 8.72363 4.68262 11.3096l22.6191 22.6309
c2.58691 2.58691 7.65625 4.6875 11.3154 4.6875s8.72852 -2.10059 11.3154 -4.6875l70.0596 -70.0605l150.06 150.061c2.58691 2.58691 7.65625 4.6875 11.3154 4.6875s8.72852 -2.10059 11.3154 -4.6875l22.6191 -22.6309
c2.58496 -2.58594 4.68262 -7.65332 4.68262 -11.3096s-2.09766 -8.72363 -4.68262 -11.3096z" />
    <glyph glyph-name="question-circle-primary" unicode="&#xf059;" 
d="M256 110c25.3916 0 46 -20.6084 46 -46s-20.6084 -46 -46 -46s-46 20.6084 -46 46s20.6084 46 46 46zM262.66 358c56.3398 0 116.53 -44 116.53 -102c0 -77 -83.1904 -78.21 -83.1904 -106.67v-1.33008c0 -6.62402 -5.37598 -12 -12 -12h-56
c-6.62402 0 -12 5.37598 -12 12v4c0 41.0596 31.1299 57.4697 54.6504 70.6104c20.1699 11.3398 32.54 19 32.54 34c0 19.8594 -25.2705 33 -45.7002 33c-27.1904 0 -39.4404 -13.1406 -57.2998 -35.79c-1.98926 -2.52148 -6.20996 -4.56738 -9.4209 -4.56738
c-2.22754 0 -5.47461 1.0918 -7.25 2.4375l-34.6992 26.3096c-2.61816 1.98828 -4.74316 6.26953 -4.74316 9.55664c0 2.01562 0.910156 5.00977 2.0332 6.68359c27.29 40.7598 62.0498 63.7598 116.55 63.7598z" />
    <glyph glyph-name="info-circle-primary" unicode="&#xf05a;" 
d="M256 246c-23.1836 0 -42 18.8164 -42 42s18.8164 42 42 42s42 -18.8164 42 -42s-18.8164 -42 -42 -42zM300 112c6.62402 0 12 -5.37598 12 -12v-24c0 -6.62402 -5.37598 -12 -12 -12h-88c-6.62402 0 -12 5.37598 -12 12v24c0 6.62402 5.37598 12 12 12h12v64h-12
c-6.62402 0 -12 5.37598 -12 12v24c0 6.62402 5.37598 12 12 12h64c6.62402 0 12 -5.37598 12 -12v-100h12z" />
    <glyph glyph-name="crosshairs-primary" unicode="&#xf05b;" 
d="M256 224c17.6641 0 32 -14.3359 32 -32s-14.3359 -32 -32 -32s-32 14.3359 -32 32s14.3359 32 32 32zM272 96c8.83203 0 16 -7.16797 16 -16v-128c0 -8.83203 -7.16797 -16 -16 -16h-32c-8.83203 0 -16 7.16797 -16 16v128c0 8.83203 7.16797 16 16 16h32zM144 224
c8.83203 0 16 -7.16797 16 -16v-32c0 -8.83203 -7.16797 -16 -16 -16h-128c-8.83203 0 -16 7.16797 -16 16v32c0 8.83203 7.16797 16 16 16h128zM496 224c8.83203 0 16 -7.16797 16 -16v-32c0 -8.83203 -7.16797 -16 -16 -16h-128c-8.83203 0 -16 7.16797 -16 16v32
c0 8.83203 7.16797 16 16 16h128zM272 448c8.83203 0 16 -7.16797 16 -16v-128c0 -8.83203 -7.16797 -16 -16 -16h-32c-8.83203 0 -16 7.16797 -16 16v128c0 8.83203 7.16797 16 16 16h32z" />
    <glyph glyph-name="ban-primary" unicode="&#xf05e;" 
d="M256 440c137 0 248 -111 248 -248s-111 -248 -248 -248s-248 111 -248 248s111 248 248 248zM386.11 61.8896c29.7471 29.5908 53.8906 87.6582 53.8906 129.616c0 0.136719 -0.000976562 0.357422 -0.000976562 0.494141
c-0.00292969 101.565 -82.4346 183.995 -184 183.995c-101.568 0 -184 -82.4316 -184 -184c0 -101.567 82.4316 -184 184 -184c42.0723 0 100.361 24.1445 130.11 53.8945z" />
    <glyph glyph-name="arrow-left-primary" unicode="&#xf060;" horiz-adv-x="448" 
d="M201.69 -25.4805l-0.709961 0.710938l-193.98 199.329c-3.88574 4.01367 -7.03906 11.8047 -7.03906 17.3906s3.15332 13.377 7.03906 17.3896l194 199.43c3.8125 3.99023 11.3857 7.22852 16.9043 7.22852c5.19824 0 12.459 -2.9248 16.2061 -6.52832
c0.239258 -0.219727 0.469727 -0.459961 0.699219 -0.700195l22.1309 -22.7695c3.85547 -4.02441 6.98438 -11.8125 6.98438 -17.3857c0 -5.75684 -3.30859 -13.7295 -7.38477 -17.7939l-160.73 -158.82l160.73 -158.8c4.11914 -4.04688 7.46191 -12.0176 7.46191 -17.791
c0 -5.59082 -3.16406 -13.3818 -7.06152 -17.3896l-22.1504 -22.7793c-3.8125 -3.99316 -11.3877 -7.2334 -16.9092 -7.2334c-5.19141 0 -12.4453 2.91797 -16.1904 6.5127z" />
    <glyph glyph-name="arrow-right-primary" unicode="&#xf061;" horiz-adv-x="448" 
d="M246.31 409.48c0.240234 -0.230469 0.480469 -0.470703 0.709961 -0.710938l193.98 -199.329c3.88574 -4.01367 7.03906 -11.8047 7.03906 -17.3906s-3.15332 -13.377 -7.03906 -17.3896l-194 -199.43c-3.8125 -3.99023 -11.3857 -7.22852 -16.9043 -7.22852
c-5.19824 0 -12.459 2.9248 -16.2061 6.52832c-0.239258 0.219727 -0.469727 0.459961 -0.699219 0.700195l-22.1309 22.7695c-3.85547 4.02441 -6.98438 11.8125 -6.98438 17.3857c0 5.75684 3.30859 13.7295 7.38477 17.7939l160.73 158.82l-160.73 158.8
c-4.11914 4.04688 -7.46191 12.0176 -7.46191 17.791c0 5.59082 3.16406 13.3818 7.06152 17.3896l22.1504 22.7793c3.8125 3.99316 11.3877 7.2334 16.9092 7.2334c5.19141 0 12.4453 -2.91797 16.1904 -6.5127z" />
    <glyph glyph-name="arrow-up-primary" unicode="&#xf062;" horiz-adv-x="448" 
d="M6.51953 214.31c0.230469 0.240234 0.470703 0.480469 0.710938 0.709961l199.329 193.98c4.01367 3.88574 11.8047 7.03906 17.3906 7.03906s13.377 -3.15332 17.3896 -7.03906l199.43 -194c3.99023 -3.8125 7.22852 -11.3857 7.22852 -16.9043
c0 -5.19824 -2.9248 -12.459 -6.52832 -16.2061c-0.219727 -0.239258 -0.459961 -0.469727 -0.700195 -0.699219l-22.7695 -22.1309c-4.02441 -3.85547 -11.8125 -6.98438 -17.3857 -6.98438c-5.75684 0 -13.7295 3.30859 -17.7939 7.38477l-158.82 160.73l-158.8 -160.73
c-4.04688 -4.11914 -12.0176 -7.46191 -17.791 -7.46191c-5.59082 0 -13.3818 3.16406 -17.3896 7.06152l-22.7891 22.1504c-3.99023 3.8125 -7.22852 11.3857 -7.22852 16.9043c0 5.19434 2.91992 12.4502 6.51758 16.1953z" />
    <glyph glyph-name="arrow-down-primary" unicode="&#xf063;" horiz-adv-x="448" 
d="M441.48 169.69c-0.230469 -0.240234 -0.470703 -0.480469 -0.710938 -0.709961l-199.329 -193.98c-4.01367 -3.88574 -11.8047 -7.03906 -17.3906 -7.03906s-13.377 3.15332 -17.3896 7.03906l-199.43 194c-3.99023 3.8125 -7.22852 11.3857 -7.22852 16.9043
c0 5.19824 2.9248 12.459 6.52832 16.2061c0.219727 0.239258 0.459961 0.469727 0.700195 0.699219l22.7695 22.1309c4.02441 3.85547 11.8125 6.98438 17.3857 6.98438c5.75684 0 13.7295 -3.30859 17.7939 -7.38477l158.82 -160.73l158.8 160.73
c4.04688 4.11914 12.0176 7.46191 17.791 7.46191c5.59082 0 13.3818 -3.16406 17.3896 -7.06152l22.7793 -22.1504c3.99316 -3.8125 7.2334 -11.3877 7.2334 -16.9092c0 -5.19141 -2.91797 -12.4453 -6.5127 -16.1904z" />
    <glyph glyph-name="share-primary" unicode="&#xf064;" 
d="M506.16 224.3c-0.631836 -0.731445 -1.73828 -1.83789 -2.46973 -2.46973l-176 -152c-15.3906 -13.29 -39.6904 -2.54004 -39.6904 18.1699v304c0 20.6602 24.2803 31.46 39.6904 18.1602l176 -152c4.58887 -3.96289 8.31348 -12.1006 8.31348 -18.1641
c0 -4.93262 -2.61816 -11.9648 -5.84375 -15.6963z" />
    <glyph glyph-name="expand-primary" unicode="&#xf065;" horiz-adv-x="448" 
d="M148 32c6.62402 0 12 -5.37598 12 -12v-40c0 -6.62402 -5.37598 -12 -12 -12h-124h-0.0605469c-13.2148 0 -23.9395 10.7246 -23.9395 23.9395v0.0605469v124c0 6.62402 5.37598 12 12 12h40c6.62402 0 12 -5.37598 12 -12v-84h84zM424 416h0.0605469
c13.2148 0 23.9395 -10.7246 23.9395 -23.9395v-0.0605469v-124c0 -6.62402 -5.37598 -12 -12 -12h-40c-6.62402 0 -12 5.37598 -12 12v84h-84c-6.62402 0 -12 5.37598 -12 12v40c0 6.62402 5.37598 12 12 12h124z" />
    <glyph glyph-name="compress-primary" unicode="&#xf066;" horiz-adv-x="448" 
d="M436 128c6.62402 0 12 -5.37598 12 -12v-40c0 -6.62402 -5.37598 -12 -12 -12h-84v-84c0 -6.62402 -5.37598 -12 -12 -12h-40c-6.62402 0 -12 5.37598 -12 12v124v0.0605469c0 13.2148 10.7246 23.9395 23.9395 23.9395h0.0605469h124zM148 416
c6.62402 0 12 -5.37598 12 -12v-124v-0.0605469c0 -13.2148 -10.7246 -23.9395 -23.9395 -23.9395h-0.0605469h-124c-6.62402 0 -12 5.37598 -12 12v40c0 6.62402 5.37598 12 12 12h84v84c0 6.62402 5.37598 12 12 12h40z" />
    <glyph glyph-name="plus-primary" unicode="&#xf067;" horiz-adv-x="448" 
d="M448 208v-32c0 -17.6641 -14.3359 -32 -32 -32h-384c-17.6641 0 -32 14.3359 -32 32v32c0 17.6641 14.3359 32 32 32h384c17.6641 0 32 -14.3359 32 -32z" />
    <glyph glyph-name="minus-primary" unicode="&#xf068;" horiz-adv-x="448" 
 />
    <glyph glyph-name="asterisk-primary" unicode="&#xf069;" 
d="M488 81.3203l-0.25 -0.450195l-19.5 -33.7402c-3.83984 -6.62109 -13.168 -11.9941 -20.8213 -11.9941c-3.57227 0 -8.97852 1.45312 -12.0684 3.24414l-0.379883 0.230469l-178.98 105.39l-179 -105.39c-3.16406 -1.9082 -8.73145 -3.45605 -12.4268 -3.45605
c-7.47559 0 -16.6924 5.18555 -20.5732 11.5762l-0.230469 0.399414l-19.5 33.7402c-1.76465 3.06738 -3.19727 8.42969 -3.19727 11.9697c0 7.66016 5.38867 16.9785 12.0273 20.7998l0.410156 0.230469l182.4 100.45l-3.4502 209.17
c-0.00292969 0.141602 -0.00585938 0.373047 -0.00585938 0.515625c0 12.9668 10.5215 23.7158 23.4863 23.9941h39.5498c13.248 0 24 -10.752 24 -24v-0.519531l-3.49023 -209.48l182.53 -100.09c6.86523 -3.77441 12.4365 -13.1963 12.4365 -21.0312
c0 -3.40039 -1.3291 -8.5791 -2.9668 -11.5586z" />
    <glyph glyph-name="exclamation-circle-primary" unicode="&#xf06a;" 
d="M278.32 320c8.80957 -0.0224609 15.959 -7.19043 15.959 -16c0 -0.439453 -0.0351562 -1.15234 -0.0791016 -1.58984l-12.7998 -128c-0.794922 -7.9541 -7.92676 -14.4102 -15.9199 -14.4102h-19c-7.99414 0 -15.126 6.45605 -15.9209 14.4102l-12.7998 128
c-0.0439453 0.4375 -0.0791016 1.15039 -0.0791016 1.58984c0 8.83203 7.16797 16 15.999 16h44.6406zM256 128c17.6641 0 32 -14.3359 32 -32s-14.3359 -32 -32 -32s-32 14.3359 -32 32s14.3359 32 32 32z" />
    <glyph glyph-name="gift-primary" unicode="&#xf06b;" 
d="M224 -32v160h64v-160h-64zM359.54 416c48.75 0 88.46 -39.5 88.46 -88c-0.0986328 -11.7246 -4.6416 -29.6445 -10.1396 -40h-78.3105c22.0801 0 40 17.9199 40 40s-17.9199 40 -40 40c-20.5498 0 -34.8799 -3.5 -86.5498 -80h15v-128h-64v128h14.9102
c-51.7705 76.7002 -66.5498 80 -86.5498 80c-22.0801 0 -40 -17.9199 -40 -40s17.9199 -40 40 -40h-78.21c-5.54199 10.3447 -10.0889 28.2646 -10.1504 40c0 48.5 39.71 88 88.46 88c41.8203 0 68.8604 -21.2998 103.54 -68.2998
c34.6797 47 61.7197 68.2998 103.54 68.2998z" />
    <glyph glyph-name="leaf-primary" unicode="&#xf06c;" horiz-adv-x="576" 
d="M24.5 -64c-2.73145 0.00488281 -6.9873 0.87793 -9.5 1.9502c-8.24512 3.55566 -14.9355 13.7285 -14.9355 22.708c0 2.75488 0.867188 7.05176 1.93555 9.5918c1.08008 2.59961 27.2402 64.3301 83.8096 126.43c33.4707 36.75 70.75 66.0898 110.811 87.2207
c41.8652 22.1357 114.277 40.1016 161.635 40.1016c0.34082 0 0.894531 -0.000976562 1.23535 -0.00195312c13.3545 -0.268555 24.1934 -11.3281 24.1934 -24.6846c0 -13.3574 -10.8389 -24.417 -24.1934 -24.6855
c-0.326172 0.000976562 -0.853516 0.00292969 -1.17969 0.00292969c-40.4639 0 -102.387 -15.2559 -138.221 -34.0527c-34.8994 -18.2803 -67.5996 -43.8896 -97.1797 -76.1201c-51.25 -55.8496 -75.5801 -112.83 -75.8203 -113.4
c-3.47461 -8.2959 -13.5947 -15.043 -22.5898 -15.0596z" />
    <glyph glyph-name="fire-primary" unicode="&#xf06d;" horiz-adv-x="384" 
d="M265.86 239.54c10.8096 -11 20.6201 -22.2803 28.6094 -34.6797c14.6904 -22.7803 21.5303 -47.2002 21.5303 -76.8604v-0.0625c0 -68.415 -55.5254 -123.94 -123.94 -123.94c-28.4297 0 -67.7822 16.3535 -87.8398 36.5029l2.62988 -1.20996
c13.543 -6.03223 36.5654 -11.0635 51.3906 -11.2305h1.7793c71.8896 0.00488281 131.017 58.3477 131.98 130.23v1.70996c0 27.8301 -8.69043 54.4404 -25.8398 79.1104z" />
    <glyph glyph-name="eye-primary" unicode="&#xf06e;" horiz-adv-x="576" 
d="M380.66 167.13c-10.5137 -39.1631 -51.9551 -70.9473 -92.5049 -70.9473c-52.8711 0 -95.7803 42.9092 -95.7803 95.7803c0 7.12305 1.53027 18.4785 3.41504 25.3467c6.9834 -5.13867 19.6895 -9.30957 28.3604 -9.30957c26.4131 0 47.8496 21.4365 47.8496 47.8496
c0 8.6709 -4.1709 21.377 -9.30957 28.3604c7.07812 2.02051 18.7969 3.66016 26.1582 3.66016c52.6055 0 95.2998 -42.6943 95.2998 -95.2998c0 -7.15137 -1.5498 -18.5488 -3.45801 -25.4404h-0.0302734z" />
    <glyph glyph-name="eye-slash-primary" unicode="&#xf070;" horiz-adv-x="640" 
d="M636.64 -32.5498l-19.6396 -25.2705c-2.65234 -3.40625 -8.30859 -6.1709 -12.625 -6.1709c-3.03125 0 -7.43262 1.50977 -9.8252 3.37109l-588.37 454.72c-3.41016 2.65234 -6.17773 8.31055 -6.17773 12.6309c0 3.0293 1.50879 7.42773 3.36816 9.81934
l19.6299 25.2705c2.65234 3.40625 8.30859 6.1709 12.625 6.1709c3.03125 0 7.43262 -1.50977 9.8252 -3.37109l588.37 -454.72c3.41309 -2.65234 6.18359 -8.3125 6.18359 -12.6357c0 -3.02734 -1.50684 -7.42383 -3.36426 -9.81445z" />
    <glyph glyph-name="exclamation-triangle-primary" unicode="&#xf071;" horiz-adv-x="576" 
d="M310.32 256c8.80957 -0.0224609 15.959 -7.19043 15.959 -16c0 -0.439453 -0.0351562 -1.15234 -0.0791016 -1.58984l-12.7998 -128c-0.794922 -7.9541 -7.92676 -14.4102 -15.9199 -14.4102h-19c-7.99414 0 -15.126 6.45605 -15.9209 14.4102l-12.7998 128
c-0.0439453 0.4375 -0.0791016 1.15039 -0.0791016 1.58984c0 8.83203 7.16797 16 15.999 16h44.6406zM288 64c17.6641 0 32 -14.3359 32 -32s-14.3359 -32 -32 -32s-32 14.3359 -32 32s14.3359 32 32 32z" />
    <glyph glyph-name="plane-primary" unicode="&#xf072;" horiz-adv-x="576" 
d="M480 128h-368l-43.2002 -57.5996c-2.64941 -3.5332 -8.38379 -6.40039 -12.7998 -6.40039h-40c-8.8252 0.00683594 -15.9873 7.1748 -15.9873 16c0 1.08691 0.213867 2.8252 0.477539 3.87988l31.5098 108.12l-31.5098 108.12
c-0.263672 1.05469 -0.477539 2.79297 -0.477539 3.87988c0 8.8252 7.16211 15.9932 15.9873 16h40c4.41602 0 10.1504 -2.86719 12.7998 -6.40039l43.2002 -57.5996h368c35.3496 0 96 -28.6504 96 -64s-60.6504 -64 -96 -64z" />
    <glyph glyph-name="calendar-alt-primary" unicode="&#xf073;" horiz-adv-x="448" 
d="M448 336v-48h-448v48c0 26.4961 21.5039 48 48 48h48v48c0 8.83203 7.16797 16 16 16h32c8.83203 0 16 -7.16797 16 -16v-48h128v48c0 8.83203 7.16797 16 16 16h32c8.83203 0 16 -7.16797 16 -16v-48h48c26.4961 0 48 -21.5039 48 -48z" />
    <glyph glyph-name="random-primary" unicode="&#xf074;" 
d="M505 329c3.89648 -3.88281 7.05859 -11.499 7.05859 -17s-3.16211 -13.1172 -7.05859 -17l-80 -80c-15 -15 -41 -4.48047 -41 17v40h-32l-220.44 -236.19c-1.96289 -2.10254 -5.89258 -3.80957 -8.76953 -3.80957h-110.79c-6.62402 0 -12 5.37598 -12 12v56
c0 6.62402 5.37598 12 12 12h84l220.44 236.19c1.96387 2.10254 5.89258 3.80957 8.77051 3.80957h0.00878906h58.7803v40c0 21.4404 25.9404 32 41 17z" />
    <glyph glyph-name="comment-primary" unicode="&#xf075;" 
 />
    <glyph glyph-name="magnet-primary" unicode="&#xf076;" 
d="M512 255.8c-0.200195 -20.2002 -0.599609 -40.3994 0 -53.2002c0 -150.699 -134.5 -246.699 -255.1 -246.699c-120.601 0 -256.801 96 -256.801 246.6c0.600586 13 0.100586 31.9004 0 53.2998v0.100586c0 6.62402 5.37598 12 12 12v0h152c6.62402 0 12 -5.37598 12 -12
v-52c0 -127.9 160 -128.101 160 0v52c0 6.62402 5.37598 12 12 12h151.9v0c6.62402 0 12 -5.37598 12 -12v-0.100586z" />
    <glyph glyph-name="chevron-up-primary" unicode="&#xf077;" horiz-adv-x="448" 
d="M435 89.25l-22.6504 -22.7002c-3.86719 -3.87012 -11.4473 -7.01172 -16.9199 -7.01172c-5.47168 0 -13.0518 3.1416 -16.9199 7.01172l-211.34 211l40 40c3.86914 3.86816 11.4492 7.00781 16.9199 7.00781s13.0518 -3.13965 16.9199 -7.00781l193.99 -194.359
c3.87988 -3.88086 7.0293 -11.4834 7.0293 -16.9707s-3.14941 -13.0898 -7.0293 -16.9697z" />
    <glyph glyph-name="chevron-down-primary" unicode="&#xf078;" horiz-adv-x="448" 
d="M435 260.85l-194 -194.33c-3.87012 -3.86523 -11.4502 -7.00293 -16.9199 -7.00293s-13.0508 3.1377 -16.9199 7.00293l-40 40l211.34 211c3.86914 3.86914 11.4492 7.00879 16.9199 7.00879s13.0508 -3.13965 16.9199 -7.00879l22.6602 -22.7295
c3.87988 -3.87988 7.0293 -11.4824 7.0293 -16.9697s-3.14941 -13.0898 -7.0293 -16.9707z" />
    <glyph glyph-name="retweet-primary" unicode="&#xf079;" horiz-adv-x="640" 
d="M259.17 310.72c-15.1201 15.1201 -4.41016 41 17 41h243.521c13.248 0 24 -10.752 24 -24v-222.149l40.4092 42.79c3.9209 4.15137 11.7383 7.52051 17.4482 7.52051c5.48828 0 13.0918 -3.14941 16.9717 -7.03125l10.8203 -10.8496
c3.87988 -3.87988 7.0293 -11.4824 7.0293 -16.9697s-3.14941 -13.0898 -7.0293 -16.9707l-100.68 -100.659c-3.87988 -3.87988 -11.4834 -7.0293 -16.9697 -7.0293c-5.4873 0 -13.0898 3.14941 -16.9707 7.0293l-100.72 100.689
c-3.87207 3.87891 -7.01367 11.4746 -7.01367 16.9551s3.1416 13.0762 7.01367 16.9551l10.8203 10.8203c3.87988 3.88086 11.4834 7.03027 16.9717 7.03027c5.70996 0 13.5273 -3.36914 17.4482 -7.52051l40.4199 -42.79v182.15h-187.521
c-0.015625 0 -0.0419922 -0.000976562 -0.0585938 -0.000976562c-5.47363 0 -13.0635 3.13672 -16.9414 7.00098z" />
    <glyph glyph-name="shopping-cart-primary" unicode="&#xf07a;" horiz-adv-x="576" 
d="M218.12 96h268.42c13.2461 -0.00195312 23.9971 -10.7539 23.9971 -24c0 -1.48633 -0.267578 -3.87012 -0.59668 -5.32031l-5.52051 -24.2793c17.4385 -8.44531 31.5918 -31.0254 31.5918 -50.4014c0 -30.9111 -25.0889 -56 -56 -56c-30.9121 0 -56 25.0889 -56 56
c0 12.9902 7.53027 30.9102 16.8086 40.001h-209.641c9.28125 -9.09082 16.8145 -27.0137 16.8145 -40.0059c0 -30.9121 -25.0879 -56 -56 -56s-56 25.0879 -56 56c0 17.9053 12.6045 39.667 28.1357 48.5762l-70.25 343.43h-69.8799c-13.248 0 -24 10.752 -24 24v16
c0 13.248 10.752 24 24 24h102.53c10.792 -0.0195312 21.3066 -8.61621 23.4697 -19.1904z" />
    <glyph glyph-name="folder-primary" unicode="&#xf07b;" 
 />
    <glyph glyph-name="folder-open-primary" unicode="&#xf07c;" horiz-adv-x="576" 
d="M152 192h400c13.2471 -0.000976562 23.998 -10.7529 23.998 -24c0 -3.58105 -1.46387 -8.99707 -3.26758 -12.0898l-72.4609 -124.16c-10.2217 -17.5225 -34.9834 -31.7471 -55.2695 -31.75h-400c-13.2471 0.000976562 -23.998 10.7529 -23.998 24
c0 3.58105 1.46387 8.99707 3.26758 12.0898l72.4502 124.16c10.2246 17.5254 34.9902 31.75 55.2803 31.75z" />
    <glyph glyph-name="arrows-v-primary" unicode="&#xf07d;" horiz-adv-x="256" 
d="M18.3701 294.59l-11.3701 11.3105c-3.87598 3.89941 -7.02148 11.5264 -7.02148 17.0244s3.14551 13.126 7.02148 17.0254l98.3799 98.6494c5.16504 5.18848 15.2988 9.39844 22.6201 9.39844s17.4551 -4.20996 22.6201 -9.39844l98.3799 -98.6992
c3.8623 -3.89746 6.99707 -11.5137 6.99707 -17c0 -5.4873 -3.13477 -13.1035 -6.99707 -17l-11.3701 -11.3105c-3.8252 -3.6377 -11.2139 -6.59082 -16.4922 -6.59082c-5.70801 0 -13.5156 3.37402 -17.4277 7.53125l-75.71 79.8994l-75.71 -79.8994
c-3.91211 -4.15723 -11.7197 -7.53125 -17.4277 -7.53125c-5.27832 0 -12.667 2.95312 -16.4922 6.59082zM237.63 89.4102l11.3701 -11.3604c3.87598 -3.89941 7.02148 -11.5264 7.02148 -17.0244c0 -5.49902 -3.14551 -13.126 -7.02148 -17.0254l-98.4004 -98.6504
c-5.16504 -5.1875 -15.2988 -9.39844 -22.6191 -9.39844c-7.32129 0 -17.4551 4.21094 -22.6201 9.39844l-98.3604 98.6504c-3.88965 3.90234 -7.04688 11.54 -7.04688 17.0498s3.15723 13.1484 7.04688 17.0498l11.3701 11.3105
c3.8252 3.6377 11.2139 6.59082 16.4922 6.59082c5.70801 0 13.5156 -3.37402 17.4277 -7.53125l75.71 -79.8994l75.71 79.8994c3.91211 4.15723 11.7197 7.53125 17.4277 7.53125c5.27832 0 12.667 -2.95312 16.4922 -6.59082z" />
    <glyph glyph-name="arrows-h-primary" unicode="&#xf07e;" 
d="M358.59 301.63l11.3604 11.3701c3.89941 3.87598 11.5264 7.02148 17.0244 7.02148c5.49902 0 13.126 -3.14551 17.0254 -7.02148l98.6504 -98.4004c5.1875 -5.16504 9.39844 -15.2988 9.39844 -22.6191c0 -7.32129 -4.21094 -17.4551 -9.39844 -22.6201
l-98.6504 -98.3604c-3.90234 -3.88965 -11.54 -7.04688 -17.0498 -7.04688s-13.1484 3.15723 -17.0498 7.04688l-11.3105 11.3701c-3.6377 3.8252 -6.59082 11.2139 -6.59082 16.4922c0 5.70801 3.37402 13.5156 7.53125 17.4277l79.8994 75.71l-79.8994 75.71
c-4.15723 3.91211 -7.53125 11.7197 -7.53125 17.4277c0 5.27832 2.95312 12.667 6.59082 16.4922zM153.41 82.3701l-11.3105 -11.3701c-3.89941 -3.87598 -11.5264 -7.02148 -17.0244 -7.02148s-13.126 3.14551 -17.0254 7.02148l-98.6494 98.3799
c-5.18848 5.16504 -9.39844 15.2988 -9.39844 22.6201s4.20996 17.4551 9.39844 22.6201l98.6992 98.3799c3.89746 3.8623 11.5137 6.99707 17 6.99707c5.4873 0 13.1035 -3.13477 17 -6.99707l11.3105 -11.3701c3.6377 -3.8252 6.59082 -11.2139 6.59082 -16.4922
c0 -5.70801 -3.37402 -13.5156 -7.53125 -17.4277l-79.8994 -75.71l79.8994 -75.71c4.15723 -3.91211 7.53125 -11.7197 7.53125 -17.4277c0 -5.27832 -2.95312 -12.667 -6.59082 -16.4922z" />
    <glyph glyph-name="chart-bar-primary" unicode="&#xf080;" 
d="M275.2 352c6.39941 0 12.7998 -6.40039 12.7998 -12.7998v-198.4c0 -6.39941 -6.40039 -12.7998 -12.7998 -12.7998h-38.4004c-6.39941 0 -12.7998 6.40039 -12.7998 12.7998v198.4c0 6.39941 6.40039 12.7998 12.7998 12.7998h38.4004zM179.2 224
c6.39941 0 12.7998 -6.40039 12.7998 -12.7998v-70.4004c0 -6.39941 -6.40039 -12.7998 -12.7998 -12.7998h-38.4004c-6.39941 0 -12.7998 6.40039 -12.7998 12.7998v70.4004c0 6.39941 6.40039 12.7998 12.7998 12.7998h38.4004zM467.2 384
c6.39941 0 12.7998 -6.40039 12.7998 -12.7998v-230.4c0 -6.39941 -6.40039 -12.7998 -12.7998 -12.7998h-38.4004c-6.39941 0 -12.7998 6.40039 -12.7998 12.7998v230.4c0 6.39941 6.40039 12.7998 12.7998 12.7998h38.4004zM371.2 288
c6.39941 0 12.7998 -6.40039 12.7998 -12.7998v-134.4c0 -6.39941 -6.40039 -12.7998 -12.7998 -12.7998h-38.4004c-6.39941 0 -12.7998 6.40039 -12.7998 12.7998v134.4c0 6.39941 6.40039 12.7998 12.7998 12.7998h38.4004z" />
    <glyph glyph-name="camera-retro-primary" unicode="&#xf083;" 
d="M176 400v-32h-128v32c0 8.83203 7.16797 16 16 16h96c8.83203 0 16 -7.16797 16 -16zM0 288h512v-272c0 -26.4961 -21.5039 -48 -48 -48h-416c-26.4961 0 -48 21.5039 -48 48v272zM256 8c66.2402 0 120 53.7598 120 120s-53.7598 120 -120 120s-120 -53.7598 -120 -120
s53.7598 -120 120 -120z" />
    <glyph glyph-name="key-primary" unicode="&#xf084;" 
d="M336 448c97.1523 0 176 -78.8477 176 -176s-78.8477 -176 -176 -176s-176 78.8477 -176 176s78.8477 176 176 176zM384 272c26.4961 0 48 21.5039 48 48s-21.5039 48 -48 48s-48 -21.5039 -48 -48s21.5039 -48 48 -48z" />
    <glyph glyph-name="cogs-primary" unicode="&#xf085;" horiz-adv-x="640" 
d="M420 144.21c6.61816 -3.8252 11.9893 -13.1338 11.9893 -20.7783c0 -2.37012 -0.666992 -6.09863 -1.48926 -8.32129c-8.90039 -24.2002 -26.4004 -46.4004 -42.5996 -65.8008c-3.95605 -4.70605 -12.1562 -8.52637 -18.3047 -8.52637
c-3.55078 0 -8.9248 1.44531 -11.9961 3.22656l-29.0996 16.7998c-13.5098 -11.5938 -38.1045 -25.7949 -54.9004 -31.6992v-33.6006v-0.046875c0 -11.0479 -8.8252 -21.5996 -19.6992 -23.5527c-10.3994 -1.78027 -27.4004 -3.22559 -37.9502 -3.22559
s-27.5518 1.44531 -37.9502 3.22559c-11.0098 1.86133 -19.9697 12.4336 -20 23.5996v33.6006c-16.7764 5.93555 -41.3721 20.1377 -54.9004 31.6992l-29.0996 -16.6992c-3.07031 -1.77832 -8.44238 -3.22168 -11.9912 -3.22168
c-6.14746 0 -14.3506 3.81738 -18.3086 8.52148c-16.2002 19.3994 -33.2998 41.5996 -42.2002 65.7002c-0.805664 2.20898 -1.45898 5.91211 -1.45898 8.26367c0 7.64551 5.35742 16.9795 11.959 20.8359l33.2998 16.7998c-1.61426 8.6748 -2.9248 22.877 -2.9248 31.7002
s1.31055 23.0254 2.9248 31.7002l-33.2998 16.8994c-6.62109 3.79102 -11.9951 13.0596 -11.9951 20.6895c0 2.36816 0.669922 6.0918 1.49512 8.31055c8.90039 24.2002 26 46.4004 42.2002 65.8008c3.95508 4.70605 12.1562 8.52637 18.3037 8.52637
c3.55078 0 8.9248 -1.44531 11.9961 -3.22656l29.0996 -16.8105c13.5098 11.5947 38.1055 25.7959 54.9004 31.7002v33.7002v0.0546875c0 10.998 8.78516 21.502 19.6104 23.4453c10.4941 1.78711 27.6504 3.23828 38.2959 3.23828
c10.4785 0 27.3691 -1.40625 37.7041 -3.13867c11.0098 -1.86035 19.9697 -12.4336 20 -23.5996v-33.5996c16.7764 -5.93652 41.3711 -20.1387 54.8994 -31.7002l29.1006 16.7998c3.07031 1.77832 8.44238 3.2207 11.9912 3.2207
c6.14746 0 14.3496 -3.81738 18.3086 -8.52051c16.2002 -19.4004 33.2002 -41.6006 42.0996 -65.7998c4 -10.9004 0.100586 -23.2002 -10 -29.1006l-33.7002 -16.7998c1.61523 -8.68848 2.92578 -22.9131 2.92578 -31.75s-1.31055 -23.0615 -2.92578 -31.75zM268.7 139.91
c59.2002 77 -28.7002 164.899 -105.7 105.7c-59.2002 -77 28.7002 -164.9 105.7 -105.7z" />
    <glyph glyph-name="comments-primary" unicode="&#xf086;" horiz-adv-x="576" 
d="M576 128c0 -34.2998 -14.0996 -66 -38 -92c13.4004 -30.2998 35.5 -54.2002 35.7998 -54.5c1.20117 -1.27539 2.1748 -3.73242 2.1748 -5.4834c0 -0.926758 -0.301758 -2.36816 -0.674805 -3.2168c-1.125 -2.64941 -4.37402 -4.7998 -7.25293 -4.7998h-0.046875
c-36.5996 0 -66.9004 12.2998 -88.7002 25c-32.2002 -15.7998 -70.2998 -25 -111.3 -25c-86.2002 0 -160.2 40.4004 -191.7 97.9004c8.72168 -0.989258 22.9229 -1.83984 31.7002 -1.90039c132.3 0 240 86.0996 240 192
c0 0.132812 0.000976562 0.347656 0.000976562 0.480469c0 5.43848 -0.583008 14.2285 -1.30078 19.6191c75.7998 -23.8994 129.3 -81.1992 129.3 -148.1z" />
    <glyph glyph-name="star-half-primary" unicode="&#xf089;" horiz-adv-x="576" 
d="M110.4 -26.5l25 145.5l-105.7 103c-19 18.5 -8.5 50.7998 17.7002 54.5996l146.1 21.2002l65.2998 132.4c4.77441 9.82617 17.5156 17.8008 28.4404 17.8008c0.0722656 0 0.188477 0 0.259766 -0.000976562v-439.6l-130.7 -68.6006
c-23.3994 -12.2998 -50.8994 7.60059 -46.3994 33.7002z" />
    <glyph glyph-name="sign-out-primary" unicode="&#xf08b;" 
d="M353 359.7l151.9 -150.601c3.92383 -3.8877 7.1084 -11.5254 7.1084 -17.0498c0 -5.52344 -3.18457 -13.1621 -7.1084 -17.0498l-152 -150.8c-3.88086 -3.82324 -11.4521 -6.92676 -16.9004 -6.92676c-5.49316 0 -13.1094 3.14844 -17 7.02637l-21.9004 21.9004
c-3.86133 3.88574 -6.99512 11.4863 -6.99512 16.9658c0 5.83984 3.49219 13.7852 7.7959 17.7344l77.5996 71.0996h-191.5h-0.0605469c-13.2148 0 -23.9395 10.7246 -23.9395 23.9395v0.0605469v32v0.0605469c0 13.2148 10.7246 23.9395 23.9395 23.9395h0.0605469h191.5
l-77.5996 71.0996c-4.26367 3.93457 -7.72266 11.8359 -7.72266 17.6367c0 5.48438 3.14551 13.084 7.02246 16.9639l21.8994 21.8994c3.88379 3.89746 11.499 7.05957 17.001 7.05957c5.45508 0 13.0264 -3.11816 16.8994 -6.95898z" />
    <glyph glyph-name="thumbtack-primary" unicode="&#xf08d;" horiz-adv-x="384" 
d="M224 96v-104v-0.00195312c0 -1.03906 -0.375977 -2.6377 -0.839844 -3.56836l-24 -48c-1.21973 -2.44629 -4.42676 -4.43164 -7.16016 -4.43164s-5.94043 1.98535 -7.16016 4.43164l-24 48c-0.463867 0.930664 -0.839844 2.5293 -0.839844 3.56836v0.00195312v104h64z
" />
    <glyph glyph-name="external-link-primary" unicode="&#xf08e;" 
d="M484 224h-17.8799h-0.0107422c-15.4561 0 -28 12.5439 -28 28c0 0.212891 0.00488281 0.557617 0.0107422 0.769531l1.87988 67.2305l-247.09 -248.91c-3.88574 -3.91309 -11.5156 -7.08887 -17.0303 -7.08887c-5.4873 0 -13.0898 3.14941 -16.9697 7.0293
l-23.9102 23.8799c-3.87988 3.87988 -7.0293 11.4824 -7.0293 16.9697c0 5.51465 3.17578 13.1445 7.08887 17.0303l248.94 247.09l-67.21 -1.90039c-0.212891 -0.00585938 -0.557617 -0.00976562 -0.770508 -0.00976562c-15.4551 0 -28 12.5439 -28 28v0.00976562v17.9004
v0c0 15.4453 12.5352 27.9893 27.9805 28h158.67v0c20.6064 0 37.3301 -16.7236 37.3301 -37.3301v-158.67c0 -15.4561 -12.5439 -28 -28 -28z" />
    <glyph glyph-name="sign-in-primary" unicode="&#xf090;" 
d="M215.6 152.1h-191.6h-0.0605469c-13.2148 0 -23.9395 10.7256 -23.9395 23.9404v0.0595703v32v0.0605469c0 13.2148 10.7246 23.9395 23.9395 23.9395h0.0605469h191.5l-77.5996 71.1006c-4.27344 3.91211 -7.74219 11.79 -7.74219 17.584
c0 5.47754 3.15527 13.0557 7.04199 16.916l21.8994 21.8994c3.89062 3.87891 11.5068 7.02637 17.001 7.02637c5.44727 0 13.0186 -3.10254 16.8994 -6.92578l151.9 -150.7c3.92383 -3.8877 7.1084 -11.5264 7.1084 -17.0498
c0 -5.52441 -3.18457 -13.1621 -7.1084 -17.0498l-151.9 -150.601c-3.87305 -3.84082 -11.4443 -6.95898 -16.8994 -6.95898c-5.50195 0 -13.1172 3.16211 -17.001 7.05957l-21.8994 21.8994c-3.87891 3.87988 -7.02734 11.4814 -7.02734 16.9678
c0 5.84766 3.50684 13.792 7.82715 17.7324z" />
    <glyph glyph-name="trophy-primary" unicode="&#xf091;" horiz-adv-x="640" 
d="M584 384h0.120117c13.1816 -0.0332031 23.8799 -10.7578 23.8799 -23.9395v-0.0605469v-56c0 -35.7002 -22.5996 -72.4004 -61.9004 -100.7c-31.3994 -22.7002 -69.6992 -37.0996 -110 -41.7002c-31.3994 -52.0996 -68.0996 -73.5996 -68.0996 -73.5996v-72h-96v72
s-36.7002 21.5 -68.0996 73.5996c-40.2002 4.60059 -78.5 19 -110 41.7002c-39.4004 28.2998 -61.9004 65 -61.9004 100.7v56.1201c0.0332031 13.1816 10.7578 23.8799 23.9395 23.8799h0.0605469h104v40.1201c0.0332031 13.1816 10.7578 23.8799 23.9395 23.8799h0.0605469
h272.12c13.1816 -0.0332031 23.8799 -10.7578 23.8799 -23.9395v-0.0605469v-40h104zM131.3 255.2c10.6396 -7.60059 29.3213 -17.1885 41.7002 -21.4004c-6.44238 23.3594 -12.1768 61.9766 -12.7998 86.2002h-64.2002v-16c0 -11.5996 10.9004 -31.2002 35.2998 -48.7998z
M544 304v16h-64.2998c-0.624023 -24.2236 -6.3584 -62.8408 -12.7998 -86.2002c12.4033 4.21289 31.1299 13.8008 41.7998 21.4004c17.5996 12.7002 35.2998 32.7002 35.2998 48.7998z" />
    <glyph glyph-name="upload-primary" unicode="&#xf093;" 
d="M192 88.0703v168h-87.7002c-17.7998 0 -26.7002 21.5 -14.0996 34.1094l152.1 152.2c3.12695 3.10645 9.24219 5.62695 13.6504 5.62695c4.40723 0 10.5225 -2.52051 13.6494 -5.62695l152.2 -152.2c12.6006 -12.6094 3.7002 -34.1094 -14.0996 -34.1094h-87.7002v-168
v-0.0605469c0 -13.2148 -10.7246 -23.9395 -23.9395 -23.9395h-0.0605469h-80h-0.0605469c-13.2148 0 -23.9395 10.7246 -23.9395 23.9395v0.0605469z" />
    <glyph glyph-name="lemon-primary" unicode="&#xf094;" 
d="M243.88 352.52c-58.1895 -14.5498 -133.81 -90.1592 -148.36 -148.359c-1.91309 -6.24414 -8.7666 -11.3115 -15.2969 -11.3115c-8.83203 0 -16 7.16797 -16 16c0 0.856445 0.132812 2.23145 0.296875 3.07129c17.3809 69.6504 101.801 154.15 171.601 171.6
c0.839844 0.165039 2.21484 0.297852 3.07129 0.297852c8.83105 0 16 -7.16797 16 -16c0 -6.53027 -5.06738 -13.3838 -11.3115 -15.2979z" />
    <glyph glyph-name="phone-primary" unicode="&#xf095;" 
 />
    <glyph glyph-name="phone-square-primary" unicode="&#xf098;" horiz-adv-x="448" 
d="M73.0898 125.79l70 30c1.5625 0.669922 4.20996 1.21289 5.90918 1.21289c3.9248 0 9.12598 -2.46484 11.6113 -5.50293l31 -37.8896c41.5469 19.6025 91.1768 69.2324 110.779 110.779l-37.8896 31c-3.03809 2.48535 -5.50293 7.68652 -5.50293 11.6113
c0 1.69922 0.542969 4.34668 1.21289 5.90918l30 70c2.15234 5.01465 8.32715 9.08496 13.7842 9.08496c0.944336 0 2.45605 -0.172852 3.37598 -0.384766l65 -15c6.41699 -1.47949 11.627 -8.02539 11.6299 -14.6104c0 -160.29 -129.94 -290 -290 -290h-0.00390625
c-6.58789 0 -13.1357 5.20996 -14.6162 11.6299l-15 65c-0.211914 0.918945 -0.383789 2.42871 -0.383789 3.37207c0 5.46094 4.07422 11.6377 9.09375 13.7881z" />
    <glyph glyph-name="unlock-primary" unicode="&#xf09c;" horiz-adv-x="448" 
d="M400 -64h-352c-26.4961 0 -48 21.5039 -48 48v160c0 26.4961 21.5039 48 48 48h352c26.4961 0 48 -21.5039 48 -48v-160c0 -26.4961 -21.5039 -48 -48 -48z" />
    <glyph glyph-name="credit-card-primary" unicode="&#xf09d;" horiz-adv-x="576" 
d="M576 192h-576v128h576v-128z" />
    <glyph glyph-name="rss-primary" unicode="&#xf09e;" horiz-adv-x="448" 
d="M0 32c0 35.3281 28.6719 64 64 64s64 -28.6719 64 -64s-28.6719 -64 -64 -64s-64 28.6719 -64 64z" />
    <glyph glyph-name="hdd-primary" unicode="&#xf0a0;" horiz-adv-x="576" 
d="M528 192c26.4961 0 48 -21.5039 48 -48v-96c0 -26.4961 -21.5039 -48 -48 -48h-480c-26.4961 0 -48 21.5039 -48 48v96c0 26.4961 21.5039 48 48 48h480zM384 64c17.6641 0 32 14.3359 32 32s-14.3359 32 -32 32s-32 -14.3359 -32 -32s14.3359 -32 32 -32zM480 64
c17.6641 0 32 14.3359 32 32s-14.3359 32 -32 32s-32 -14.3359 -32 -32s14.3359 -32 32 -32z" />
    <glyph glyph-name="bullhorn-primary" unicode="&#xf0a1;" horiz-adv-x="576" 
d="M544 263.12c17.665 -10.085 32.002 -34.7793 32.002 -55.1201s-14.3369 -45.0352 -32.002 -55.1201v110.24zM0 256c0 35.3281 28.6719 64 64 64h192v-224h-28.0801c-2.40625 -8.66797 -4.38184 -23.0039 -4.41016 -32v-0.131836
c0 -23.7783 11.7158 -58.4121 26.1504 -77.3086c15.79 -20.7197 0.149414 -50.5596 -25.9004 -50.5596h-74.2793c-11.8809 0 -23.2109 6.37012 -28.4004 17.0596c-14.1094 28.9795 -25.5605 78.6582 -25.5605 110.89v0.0507812
c0.0175781 8.87207 0.995117 23.208 2.18066 32h-33.7002c-35.3281 0 -64 28.6719 -64 64v96z" />
    <glyph glyph-name="certificate-primary" unicode="&#xf0a3;" 
 />
    <glyph glyph-name="hand-point-right-primary" unicode="&#xf0a4;" 
d="M72 272c13.248 0 24 -10.752 24 -24v-192c0 -13.248 -10.752 -24 -24 -24h-48c-13.248 0 -24 10.752 -24 24v192c0 13.248 10.752 24 24 24h48zM48 60c11.04 0 20 8.95996 20 20s-8.95996 20 -20 20s-20 -8.95996 -20 -20s8.95996 -20 20 -20z" />
    <glyph glyph-name="hand-point-left-primary" unicode="&#xf0a5;" 
d="M488 272c13.248 0 24 -10.752 24 -24v-192c0 -13.248 -10.752 -24 -24 -24h-48c-13.248 0 -24 10.752 -24 24v192c0 13.248 10.752 24 24 24h48zM464 60c11.04 0 20 8.95996 20 20s-8.95996 20 -20 20s-20 -8.95996 -20 -20s8.95996 -20 20 -20z" />
    <glyph glyph-name="hand-point-up-primary" unicode="&#xf0a6;" horiz-adv-x="384" 
d="M328 32c13.248 0 24 -10.752 24 -24v-48c0 -13.248 -10.752 -24 -24 -24h-192c-13.248 0 -24 10.752 -24 24v48c0 13.248 10.752 24 24 24h192zM304 -36c11.04 0 20 8.95996 20 20s-8.95996 20 -20 20s-20 -8.95996 -20 -20s8.95996 -20 20 -20z" />
    <glyph glyph-name="hand-point-down-primary" unicode="&#xf0a7;" horiz-adv-x="384" 
d="M328 448c13.248 0 24 -10.752 24 -24v-48c0 -13.248 -10.752 -24 -24 -24h-192c-13.248 0 -24 10.752 -24 24v48c0 13.248 10.752 24 24 24h192zM304 380c11.04 0 20 8.95996 20 20s-8.95996 20 -20 20s-20 -8.95996 -20 -20s8.95996 -20 20 -20z" />
    <glyph glyph-name="arrow-circle-left-primary" unicode="&#xf0a8;" 
d="M285.3 53.2998l-11 -10.8994c-3.86816 -3.89258 -11.4619 -7.05078 -16.9502 -7.05078c-5.4873 0 -13.0811 3.1582 -16.9492 7.05078l-132.7 132.699c-3.8916 3.86914 -7.05078 11.4629 -7.05078 16.9502c0 5.48828 3.15918 13.0811 7.05078 16.9502l132.7 132.6
c3.86816 3.89258 11.4619 7.05078 16.9492 7.05078c5.48828 0 13.082 -3.1582 16.9502 -7.05078l11 -10.8994c3.87109 -3.87891 7.01367 -11.4746 7.01367 -16.9541c0 -5.66211 -3.32129 -13.4326 -7.41309 -17.3457l-75.5 -72.4004h182.6h0.0605469
c13.2148 0 23.9395 -10.7246 23.9395 -23.9395v-0.0605469v-16v-0.0605469c0 -13.2148 -10.7246 -23.9395 -23.9395 -23.9395h-0.0605469h-182.6l75.5 -72.4004c4.0918 -3.91309 7.41309 -11.6836 7.41309 -17.3457c0 -5.47949 -3.14258 -13.0752 -7.01367 -16.9541z" />
    <glyph glyph-name="arrow-circle-right-primary" unicode="&#xf0a9;" 
d="M226.7 330.8l11 10.9004c3.86816 3.8916 11.4619 7.0498 16.9502 7.0498c5.4873 0 13.0811 -3.1582 16.9492 -7.0498l132.7 -132.8c3.8916 -3.86914 7.05078 -11.4629 7.05078 -16.9502c0 -5.48828 -3.15918 -13.0811 -7.05078 -16.9502l-132.7 -132.6
c-3.86816 -3.89258 -11.4619 -7.05078 -16.9492 -7.05078c-5.48828 0 -13.082 3.1582 -16.9502 7.05078l-11 10.8994c-3.87109 3.87891 -7.01367 11.4746 -7.01367 16.9541c0 5.66211 3.32129 13.4326 7.41309 17.3457l75.5 72.4004h-182.6h-0.0605469
c-13.2148 0 -23.9395 10.7246 -23.9395 23.9395v0.0605469v16v0.0605469c0 13.2148 10.7246 23.9395 23.9395 23.9395h0.0605469h182.6l-75.5 72.4004c-4.08398 3.93262 -7.39941 11.7266 -7.39941 17.3965c0 5.48828 3.13574 13.1055 7 17.0029z" />
    <glyph glyph-name="arrow-circle-up-primary" unicode="&#xf0aa;" 
d="M117.2 162.7l-10.9004 11c-3.8916 3.86816 -7.0498 11.4619 -7.0498 16.9502c0 5.4873 3.1582 13.0811 7.0498 16.9492l132.8 132.7c3.86914 3.8916 11.4629 7.05078 16.9502 7.05078c5.48828 0 13.0811 -3.15918 16.9502 -7.05078l132.6 -132.7
c3.89258 -3.86816 7.05078 -11.4619 7.05078 -16.9492c0 -5.48828 -3.1582 -13.082 -7.05078 -16.9502l-10.8994 -11c-3.87891 -3.87109 -11.4746 -7.01367 -16.9541 -7.01367c-5.66211 0 -13.4326 3.32129 -17.3457 7.41309l-72.4004 75.5v-182.6v-0.0605469
c0 -13.2148 -10.7246 -23.9395 -23.9395 -23.9395h-0.0605469h-16h-0.0605469c-13.2148 0 -23.9395 10.7246 -23.9395 23.9395v0.0605469v182.6l-72.4004 -75.5c-3.93262 -4.08398 -11.7266 -7.39941 -17.3965 -7.39941c-5.48828 0 -13.1055 3.13574 -17.0029 7z" />
    <glyph glyph-name="arrow-circle-down-primary" unicode="&#xf0ab;" 
d="M360.4 220.9c3.91309 4.0918 11.6836 7.41309 17.3457 7.41309c5.47949 0 13.0752 -3.14258 16.9541 -7.01367l10.8994 -11c3.89258 -3.86816 7.05078 -11.4619 7.05078 -16.9502c0 -5.4873 -3.1582 -13.0811 -7.05078 -16.9492l-132.699 -132.7
c-3.86914 -3.8916 -11.4629 -7.05078 -16.9502 -7.05078c-5.48828 0 -13.0811 3.15918 -16.9502 7.05078l-132.6 132.7c-3.89258 3.86816 -7.05078 11.4619 -7.05078 16.9492c0 5.48828 3.1582 13.082 7.05078 16.9502l10.8994 11
c3.87891 3.87109 11.4746 7.01367 16.9541 7.01367c5.66211 0 13.4326 -3.32129 17.3457 -7.41309l72.4004 -75.5v182.6v0.0605469c0 13.2148 10.7246 23.9395 23.9395 23.9395h0.0605469h16h0.0605469c13.2148 0 23.9395 -10.7246 23.9395 -23.9395v-0.0605469v-182.6z" />
    <glyph glyph-name="globe-primary" unicode="&#xf0ac;" 
d="M384 192v-0.267578c0 -17.6387 -1.50098 -46.1914 -3.34961 -63.7324h115c-2.4082 -9.03906 -7.30078 -23.375 -10.9199 -32h-108.4c-9.86035 -59.5303 -28.6201 -109.68 -52.75 -142.68c-18.2422 -5.14453 -48.4287 -9.32031 -67.3828 -9.32031h-0.197266
c8.94043 0 18.3799 4.48047 28.0498 13.4805c11.96 11.0596 23.4902 28.2891 33.3398 49.8291c10.71 23.4102 19.1299 50.9307 25.1299 81.7803c0.44043 2.29004 0.870117 4.60059 1.28027 6.91016h-175.6c0.410156 -2.30957 0.839844 -4.62012 1.28027 -6.91016
c5.96973 -30.8496 14.4199 -58.3701 25.1299 -81.7803c9.84961 -21.54 21.3398 -38.7695 33.3398 -49.8291c9.66992 -8.9502 19.1094 -13.4805 28.0498 -13.4805h-0.197266c-18.9541 0 -49.1406 4.17578 -67.3828 9.32031c-24.1299 33 -42.8896 83.1494 -52.75 142.68
h-108.4c-3.61914 8.625 -8.51172 22.9609 -10.9199 32h115c-1.84375 17.6162 -3.33984 46.2881 -3.33984 64s1.49609 46.3838 3.33984 64h-115c2.4082 9.03906 7.30078 23.375 10.9199 32h108.4c9.86035 59.5303 28.6201 109.68 52.75 142.68
c18.2422 5.14453 48.4287 9.32031 67.3828 9.32031h0.197266c-8.94043 0 -18.3799 -4.53027 -28 -13.4805c-12 -11.0596 -23.54 -28.2891 -33.3896 -49.8291c-10.71 -23.4102 -19.1299 -50.9307 -25.1299 -81.7803c-0.44043 -2.29004 -0.870117 -4.60059 -1.28027 -6.91016
h175.6c-0.410156 2.30957 -0.839844 4.62012 -1.28027 6.91016c-5.96973 30.8496 -14.4199 58.3701 -25.1299 81.7803c-9.84961 21.54 -21.3398 38.7695 -33.3398 49.8291c-9.66992 8.9502 -19.1094 13.4805 -28.0498 13.4805h0.197266
c18.9541 0 49.1406 -4.17578 67.3828 -9.32031c24.1299 -33 42.8896 -83.1494 52.75 -142.68h108.41c3.61914 -8.625 8.51172 -22.9609 10.9199 -32h-115c1.84375 -17.5156 3.33984 -46.0254 3.33984 -63.6377v-0.362305zM348.45 128
c1.95996 17.4717 3.5498 45.9199 3.5498 63.501v0.499023v0.499023c0 17.5811 -1.58984 46.0293 -3.5498 63.501h-184.9c-1.95898 -17.6094 -3.5498 -46.2812 -3.5498 -64s1.59082 -46.3906 3.5498 -64h184.9z" />
    <glyph glyph-name="wrench-primary" unicode="&#xf0ad;" 
d="M469.69 201.8c-40 -40 -97.4805 -51 -147.721 -34.2695l-0.259766 -0.260742c-37.3652 12.7598 -77.8691 53.501 -90.4102 90.9404l0.129883 0.129883c-16.54 50.1699 -5.59961 107.71 34.1299 147.4c23.3418 23.3311 69.0693 42.2666 102.071 42.2666
c9.75977 0 25.3672 -1.91211 34.8389 -4.2666c5.08789 -1.21289 9.2168 -6.44238 9.2168 -11.6729c0 -2.75879 -1.58887 -6.57422 -3.54688 -8.51758l-74.5293 -74.4795l11.3301 -68l68.0596 -11.3506l74.5303 74.5205c1.94434 1.96484 5.76562 3.56055 8.53027 3.56055
c5.16797 0 10.3818 -4.06836 11.6396 -9.08105c2.37695 -9.50098 4.30664 -25.1611 4.30664 -34.9561c0 -32.9893 -18.958 -78.6689 -42.3164 -101.964z" />
    <glyph glyph-name="tasks-primary" unicode="&#xf0ae;" 
d="M139.61 412.5l17 -16.5c1.90234 -1.94531 3.44727 -5.7334 3.44727 -8.4541c0 -2.7627 -1.58496 -6.5918 -3.53809 -8.5459l-72.1992 -72.1904l-15.5898 -15.6191c-2.04297 -1.94238 -5.9873 -3.51758 -8.80566 -3.51758c-2.81738 0 -6.7627 1.5752 -8.80469 3.51758
l-47.5898 47.3994c-1.94824 1.94141 -3.5293 5.75 -3.5293 8.5c0 2.75098 1.58105 6.55859 3.5293 8.5l15.7002 15.7197c1.94141 1.94824 5.74902 3.53027 8.5 3.53027c2.75 0 6.55762 -1.58203 8.5 -3.53027l22.6992 -22.1191l63.6807 63.3096
c1.94141 1.94824 5.74902 3.5293 8.5 3.5293c2.75 0 6.55859 -1.58105 8.5 -3.5293zM139.61 253.31l16.9795 -17c1.89648 -1.93164 3.43457 -5.69727 3.43457 -8.4043c0 -2.74805 -1.5791 -6.55371 -3.52441 -8.49512l-72.2002 -72.2197l-15.7002 -15.6904
c-2.04102 -1.94141 -5.9834 -3.5166 -8.7998 -3.5166s-6.75879 1.5752 -8.7998 3.5166l-47.4697 47.5c-1.94824 1.94141 -3.5293 5.74902 -3.5293 8.5s1.58105 6.55859 3.5293 8.5l15.7002 15.6904c1.94141 1.94824 5.74902 3.5293 8.5 3.5293
c2.75 0 6.55762 -1.58105 8.5 -3.5293l22.6992 -22.1006l63.6807 63.7197c1.94141 1.94824 5.74902 3.53027 8.5 3.53027c2.75 0 6.55859 -1.58203 8.5 -3.53027zM64 80c26.4961 0 48 -21.5039 48 -48s-21.5039 -48 -48 -48c-26.4697 0 -48.5898 21.5 -48.5898 48
s22.0996 48 48.5898 48z" />
    <glyph glyph-name="filter-primary" unicode="&#xf0b0;" horiz-adv-x="640" 
 />
    <glyph glyph-name="briefcase-primary" unicode="&#xf0b1;" 
d="M464 320c25.5996 0 48 -22.4004 48 -48v-80h-512v80c0 25.5996 22.4004 48 48 48h80v48c0 25.5996 22.4004 48 48 48h160c25.5996 0 48 -22.4004 48 -48v-48h80zM320 320v32h-128v-32h128z" />
    <glyph glyph-name="arrows-alt-primary" unicode="&#xf0b2;" 
d="M504.93 208.93c3.9043 -3.85742 7.07227 -11.4414 7.07227 -16.9297c0 -5.39648 -3.07812 -12.8916 -6.87207 -16.7305l-0.200195 -0.199219l-79.6992 -79c-15.2305 -15.0703 -41.2305 -4.41016 -41.2305 16.9297v158c0 21.3301 26 32 41.2305 16.9297zM86.7695 287.93
c15.2305 15.0703 41.2305 4.41016 41.2305 -16.9297v-158c0 -21.3301 -26 -32 -41.2305 -16.9297l-79.6992 79c-3.9043 3.85742 -7.07227 11.4414 -7.07227 16.9297c0 5.39648 3.07812 12.8916 6.87207 16.7305l0.200195 0.199219zM335 64
c21.3301 0 32 -26 16.9297 -41.2305l-79 -79.6992c-3.85742 -3.9043 -11.4414 -7.07227 -16.9297 -7.07227c-5.39648 0 -12.8916 3.07812 -16.7305 6.87207l-0.199219 0.200195l-79 79.6992c-15.0703 15.2305 -4.41016 41.2305 16.9297 41.2305h158zM272.93 440.93
l79 -79.6992c15.0703 -15.2305 4.41016 -41.2305 -16.9297 -41.2305h-158c-21.3301 0 -32 26 -16.9297 41.2305l79 79.6992c3.85742 3.9043 11.4414 7.07227 16.9297 7.07227c5.39648 0 12.8916 -3.07812 16.7305 -6.87207z" />
    <glyph glyph-name="users-primary" unicode="&#xf0c0;" horiz-adv-x="640" 
d="M396.8 160c63.5742 -0.0166016 115.184 -51.626 115.2 -115.2v-28.7998c0 -26.4961 -21.5039 -48 -48 -48h-288c-26.4961 0 -48 21.5039 -48 48v28.7998c0.0166016 63.5742 51.626 115.184 115.2 115.2h8.2998c20.9004 -10 43.9004 -16 68.5 -16
c19.918 0.0859375 50.6055 7.25391 68.5 16h8.2998zM320 192h-0.0595703c-61.791 0 -111.94 50.1494 -111.94 111.94v0.0595703c0 61.8242 50.1758 112 112 112s112 -50.1758 112 -112s-50.1758 -112 -112 -112z" />
    <glyph glyph-name="link-primary" unicode="&#xf0c1;" 
d="M410.33 244.51c28 28 28.9004 73.6602 1.15039 102c-11.6934 11.8984 -34.7217 21.5547 -51.4033 21.5547c-16.459 0 -39.2695 -9.43652 -50.917 -21.0645l-67.1602 -67.21c-11.6318 -11.6396 -21.0713 -34.4404 -21.0713 -50.8955
c0 -16.4541 9.43945 -39.2549 21.0713 -50.8945c2.64258 -2.62012 7.27539 -6.45898 10.3398 -8.57031c3.66602 -2.51367 6.77441 -8.1582 6.94043 -12.5996c0.0166016 -0.435547 0.03125 -1.14355 0.03125 -1.5791c0 -9.14844 -5.26953 -21.8047 -11.7617 -28.251
l-21.0596 -21.0498c-2.59473 -2.57812 -7.66992 -4.6709 -11.3271 -4.6709c-2.81055 0 -6.95605 1.3125 -9.25293 2.93066c-35.8984 25.0527 -65.0322 80.9131 -65.0322 124.688c0 34.5762 19.7666 82.5586 44.1221 107.102l0.360352 0.370117l67.1992 67.2002
c59.2705 59.2695 155.7 59.2598 215 0c59.3008 -59.2607 59.2705 -155.7 0 -215l-37.1094 -37.1006c-9.83984 -9.83984 -26.7803 -3.2998 -27.29 10.6006c-0.538086 14.9434 -4.87891 38.5615 -9.69043 52.7197c-0.491211 1.41504 -0.890625 3.78027 -0.890625 5.27832
c0 3.65918 2.09277 8.73535 4.6709 11.332z" />
    <glyph glyph-name="cloud-primary" unicode="&#xf0c2;" horiz-adv-x="640" 
d="M640 96c0 -70.6562 -57.3438 -128 -128 -128h-368h-0.185547c-79.4873 0 -144 64.5117 -144 144c0 56.376 43.1807 117.259 96.3857 135.9c-0.100586 2.69922 -0.200195 5.39941 -0.200195 8.09961v0.0361328c0 88.3193 71.6797 160 160 160
c51.0918 0 113.229 -35.9463 138.7 -80.2363c13.3672 8.94238 37.2676 16.1992 53.3496 16.1992c52.9648 0 95.9502 -42.9854 95.9502 -95.9502v-0.0488281v-0.0126953c0 -9.87305 -2.86719 -25.3682 -6.40039 -34.5869c56.5186 -11.5371 102.395 -67.7168 102.4 -125.4z
" />
    <glyph glyph-name="flask-primary" unicode="&#xf0c3;" horiz-adv-x="448" 
d="M112 384c-8.83203 0 -16 7.16797 -16 16v32c0 8.83203 7.16797 16 16 16h224c8.83203 0 16 -7.16797 16 -16v-32c0 -8.83203 -7.16797 -16 -16 -16h-224zM437.19 44.5c29.2998 -47 -4.40039 -108.5 -60.1006 -108.5h-306.2c-55.5996 0 -89.3994 61.4004 -60.0996 108.5
l117.21 188.5v119h64v-137.27l-126.89 -204.021c-0.633789 -0.914062 -1.14746 -2.55957 -1.14746 -3.67188c0 -1.05273 0.464844 -2.625 1.03711 -3.50781c0.913086 -1.90625 3.37012 -3.4541 5.4834 -3.4541c0.112305 0 0.294922 0.00585938 0.40625 0.0136719h306.17
c0.0947266 -0.00488281 0.248047 -0.00976562 0.341797 -0.00976562c2.14941 0 4.63086 1.58203 5.53906 3.53027c0.572266 0.878906 1.03711 2.44336 1.03711 3.49219c0 1.09766 -0.504883 2.72266 -1.12793 3.62793l-126.85 204v137.27h64v-119z" />
    <glyph glyph-name="cut-primary" unicode="&#xf0c4;" horiz-adv-x="448" 
d="M444.48 358.43l-259.12 -259.17c3.68945 -9.35742 6.68359 -25.1162 6.68359 -35.1748c0 -52.9365 -42.9629 -95.9004 -95.9004 -95.9004c-52.9365 0 -95.8994 42.9639 -95.8994 95.9004s42.9629 95.9004 95.8994 95.9004c3.66504 0 9.58594 -0.410156 13.2168 -0.915039
l216.33 216.359c13.5801 13.5801 40.1895 24.6016 59.3945 24.6016s45.8145 -11.0215 59.3955 -24.6016c1.94824 -1.94141 3.5293 -5.74902 3.5293 -8.5c0 -2.75 -1.58105 -6.55859 -3.5293 -8.5zM96 32c17.6641 0 32 14.3359 32 32s-14.3359 32 -32 32
s-32 -14.3359 -32 -32s14.3359 -32 32 -32z" />
    <glyph glyph-name="copy-primary" unicode="&#xf0c5;" horiz-adv-x="448" 
d="M320 344c0.0380859 -13.21 10.79 -23.9619 24 -24h104v-264c0 -13.248 -10.752 -24 -24 -24h-272c-13.248 0 -24 10.752 -24 24v368c0 13.248 10.752 24 24 24h168v-104zM441 375c3.86328 -3.87695 7 -11.4668 7 -16.9404v-6.05957h-96v96h6h0.0585938
c5.47461 0 13.0635 -3.13574 16.9414 -7z" />
    <glyph glyph-name="paperclip-primary" unicode="&#xf0c6;" horiz-adv-x="448" 
 />
    <glyph glyph-name="save-primary" unicode="&#xf0c7;" horiz-adv-x="448" 
d="M433.94 318.06c7.75977 -7.75977 14.0586 -22.9648 14.0596 -33.9395v-268.12c0 -26.4961 -21.5039 -48 -48 -48h-352c-26.4961 0 -48 21.5039 -48 48v352c0 26.4961 21.5039 48 48 48h268.12c10.9746 -0.000976562 26.1797 -6.2998 33.9395 -14.0596zM224 32
c35.3281 0 64 28.6719 64 64s-28.6719 64 -64 64s-64 -28.6719 -64 -64s28.6719 -64 64 -64zM320 236v100.52c-0.00195312 2.74316 -1.5791 6.54199 -3.51953 8.48047l-3.48047 3.48047c-1.93848 1.94043 -5.7373 3.51758 -8.48047 3.51953h-228.52
c-6.62402 0 -12 -5.37598 -12 -12v-104c0 -6.62402 5.37598 -12 12 -12h232c6.62402 0 12 5.37598 12 12z" />
    <glyph glyph-name="square-primary" unicode="&#xf0c8;" horiz-adv-x="448" 
 />
    <glyph glyph-name="bars-primary" unicode="&#xf0c9;" horiz-adv-x="448" 
d="M432 64c8.83203 0 16 -7.16797 16 -16v-32c0 -8.83203 -7.16797 -16 -16 -16h-416c-8.83203 0 -16 7.16797 -16 16v32c0 8.83203 7.16797 16 16 16h416zM432 384c8.83203 0 16 -7.16797 16 -16v-32c0 -8.83203 -7.16797 -16 -16 -16h-416c-8.83203 0 -16 7.16797 -16 16
v32c0 8.83203 7.16797 16 16 16h416z" />
    <glyph glyph-name="list-ul-primary" unicode="&#xf0ca;" 
d="M48 400c26.4961 0 48 -21.5039 48 -48s-21.5039 -48 -48 -48s-48 21.5039 -48 48s21.5039 48 48 48zM48 240c26.4961 0 48 -21.5039 48 -48s-21.5039 -48 -48 -48s-48 21.5039 -48 48s21.5039 48 48 48zM48 80c26.4961 0 48 -21.5039 48 -48s-21.5039 -48 -48 -48
s-48 21.5039 -48 48s21.5039 48 48 48z" />
    <glyph glyph-name="list-ol-primary" unicode="&#xf0cb;" 
d="M61.7695 47c19.6104 -5.12012 28.7002 -20.5 28.7305 -34.8799c0 -21.3701 -14.3398 -44.1201 -48.5 -44.1201c-16.6201 0 -29.29 4.75 -37 9.44043c-5.82031 4.21973 -6.34961 9.80957 -2.62988 15.9395l5.58984 9.31055c3.86035 6.61914 9.11035 7 15.5996 3.11914
c4.10352 -1.68652 11.0342 -3.08496 15.4707 -3.11914c10.1602 0 14.3594 3.5 14.3594 8.21973c0 6.64941 -5.60938 9.08984 -15.9395 9.08984h-4.73047c-5.95996 0 -9.25 2.12012 -12.25 7.87988l-1.0498 1.92969c-2.4502 4.75 -1.2002 9.81055 2.7998 14.8809l5.61035 7
c2.85742 3.55664 7.78516 9.07129 11 12.3096h-22.8301c-4.41602 0 -8 3.58398 -8 8v16c0 4.41602 3.58398 8 8 8h57c7.5 0 11.3398 -4 11.3398 -11.3496v-3.31055c0.0107422 -0.245117 0.0205078 -0.644531 0.0205078 -0.890625
c0 -4.20801 -2.28027 -10.166 -5.09082 -13.2988zM16 288c-4.41602 0 -8 3.58398 -8 8v16c0 4.41602 3.58398 8 8 8h16v64h-8c-4.4082 0.0078125 -7.98535 3.5918 -7.98535 8c0 1.04297 0.378906 2.64746 0.845703 3.58008l8 16
c1.21777 2.43457 4.41699 4.41504 7.13965 4.41992h24c4.41602 0 8 -3.58398 8 -8v-88h16c4.41602 0 8 -3.58398 8 -8v-16c0 -4.41602 -3.58398 -8 -8 -8h-64zM12.0898 128c-7.00977 0 -12.0898 4 -12.0898 11.4102v4c0 47.2803 51 56.3994 50.9697 69.1201
c0 7.18945 -5.9502 8.75 -9.2793 8.75h-0.0546875c-3.02832 0 -7.24219 -1.7207 -9.40527 -3.83984c-5.12012 -4.91016 -10.5107 -7 -16.1201 -2.44043l-8.58008 6.87988c-5.7998 4.53027 -7.16992 9.78027 -2.7998 15.3701c6.65918 8.75 19.0996 18.75 40.46 18.75
c19.4697 0 44.4697 -10.5 44.4697 -39.5596c0 -37.7607 -45.0498 -46.1504 -48.3398 -56.4404h38.6797c4.41602 0 8 -3.58398 8 -8v-16c0 -4.41602 -3.58398 -8 -8 -8h-67.9102z" />
    <glyph glyph-name="strikethrough-primary" unicode="&#xf0cc;" 
d="M410.15 128c2.19141 -6.56055 4.55273 -17.4697 5.26953 -24.3496c0.320312 -3.29395 0.580078 -8.65137 0.580078 -11.9609c0 -68.1992 -55.3506 -123.612 -123.55 -123.689h-68c-43.6553 0.0126953 -94.9287 31.7139 -114.45 70.7598l-0.519531 1
c-0.93457 1.86621 -1.69238 5.07422 -1.69238 7.16113c0 5.45703 3.96094 11.8672 8.8418 14.3096l42.9404 21.4697c1.86523 0.932617 5.07129 1.68945 7.15625 1.68945c5.46094 0 11.873 -3.96484 14.3135 -8.84961c7.6123 -15.2021 27.5898 -27.54 44.5918 -27.54
h0.0283203h66.79c24.0176 0.0224609 43.5273 19.5322 43.5498 43.5498c-0.00976562 13.1572 -9.07715 29.4863 -20.2402 36.4502h94.3906zM293.9 224h-175.61c-11.6797 16.5303 -19.7803 35.4697 -21.7803 56.3604c-0.319336 3.29297 -0.579102 8.65137 -0.579102 11.96
c0 68.2158 55.3633 123.624 123.579 123.68h68h0.0214844c43.6865 0 94.9863 -31.7188 114.509 -70.7998l0.519531 -1c0.931641 -1.86426 1.68848 -5.06836 1.68848 -7.15234c0 -5.45605 -3.95996 -11.8652 -8.83789 -14.3076l-42.9404 -21.4707
c-1.86523 -0.932617 -5.07129 -1.68945 -7.15625 -1.68945c-5.46094 0 -11.873 3.96484 -14.3135 8.84961c-7.60547 15.2188 -27.5869 27.5703 -44.6006 27.5703h-0.0595703h-66.79c-24.0391 -0.000976562 -43.5488 -19.5107 -43.5488 -43.5498
c0 -17.749 13.7666 -36.3945 30.7295 -41.6201z" />
    <glyph glyph-name="underline-primary" unicode="&#xf0cd;" horiz-adv-x="448" 
d="M32 384c-8.83203 0 -16 7.16797 -16 16v32c0 8.83203 7.16797 16 16 16h144c8.83203 0 16 -7.16797 16 -16v-32c0 -8.83203 -7.16797 -16 -16 -16h-32v-160c0 -44.1602 35.8398 -80 80 -80s80 35.8398 80 80v160h-32c-8.83203 0 -16 7.16797 -16 16v32
c0 8.83203 7.16797 16 16 16h144c8.83203 0 16 -7.16797 16 -16v-32c0 -8.83203 -7.16797 -16 -16 -16h-32v-160c0 -88.2197 -71.7803 -160 -160 -160s-160 71.7803 -160 160v160h-32z" />
    <glyph glyph-name="table-primary" unicode="&#xf0ce;" 
d="M464 416c26.4961 0 48 -21.5039 48 -48v-352c0 -26.4961 -21.5039 -48 -48 -48h-416c-26.4961 0 -48 21.5039 -48 48v352c0 26.4961 21.5039 48 48 48h416zM224 32v96h-160v-96h160zM224 192v96h-160v-96h160zM448 32v96h-160v-96h160zM448 192v96h-160v-96h160z" />
    <glyph glyph-name="magic-primary" unicode="&#xf0d0;" 
d="M359.44 165.36l-220 -220c-5.17383 -5.17285 -15.3096 -9.37012 -22.625 -9.37012c-7.31641 0 -17.4521 4.19727 -22.625 9.37012l-84.8105 84.8701c-5.17188 5.17285 -9.37012 15.3086 -9.37012 22.625c0 7.31543 4.19824 17.4512 9.37012 22.625l220 220z" />
    <glyph glyph-name="truck-primary" unicode="&#xf0d1;" horiz-adv-x="640" 
d="M624 96c8.83203 0 16 -7.16797 16 -16v-32c0 -8.83203 -7.16797 -16 -16 -16h-50.1602c-7.83984 54.0703 -53.5596 96 -109.84 96s-102.53 -41.8604 -110.38 -96h-67.2402c-7.83984 54.1396 -54.1602 96 -110.38 96s-102 -41.9297 -109.84 -96h-18.1602
c-26.4961 0 -48 21.5039 -48 48v320c0 26.4961 21.5039 48 48 48h320c26.4961 0 48 -21.5039 48 -48v-48h44.0996c10.9678 -0.0185547 26.1553 -6.33594 33.9004 -14.0996l99.9004 -99.9004c7.76367 -7.74512 14.0811 -22.9326 14.0996 -33.9004v-108.1h16zM560 192v12.0996
l-99.9004 99.9004h-44.0996v-112h144z" />
    <glyph glyph-name="money-bill-primary" unicode="&#xf0d6;" horiz-adv-x="640" 
d="M616 384c13.248 0 24 -10.752 24 -24v-336c0 -13.248 -10.752 -24 -24 -24h-592c-13.248 0 -24 10.752 -24 24v336c0 13.248 10.752 24 24 24h592zM592 101.22v181.561c-19.9023 9.47461 -43.7451 33.3174 -53.2197 53.2197h-437.561
c-9.47461 -19.9023 -33.3174 -43.7451 -53.2197 -53.2197v-181.561c19.9023 -9.47461 43.7451 -33.3174 53.2197 -53.2197h437.561c9.47461 19.9023 33.3174 43.7451 53.2197 53.2197z" />
    <glyph glyph-name="caret-down-primary" unicode="&#xf0d7;" horiz-adv-x="320" 
d="M160 104h-0.0517578c-4.25586 0 -10.2227 2.37012 -13.3184 5.29004c-0.269531 0.259766 -0.540039 0.519531 -0.799805 0.799805l-128.92 134.28c-12.6299 13.1494 -3.67969 35.6299 14.1699 35.6299h128.92v-176z" />
    <glyph glyph-name="caret-up-primary" unicode="&#xf0d8;" horiz-adv-x="320" 
d="M160 104h-128.92c-17.8496 0 -26.7998 22.4805 -14.1699 35.6299l128.92 134.28c0.259766 0.269531 0.530273 0.540039 0.799805 0.799805c3.0957 2.91992 9.0625 5.29004 13.3184 5.29004h0.0517578v-176z" />
    <glyph glyph-name="caret-left-primary" unicode="&#xf0d9;" horiz-adv-x="192" 
d="M8 192c0 4.25391 2.37012 10.2666 5.29004 13.3604c0.259766 0.279297 0.530273 0.549805 0.799805 0.80957l134.271 128.93c13.1494 12.6309 35.6299 3.68066 35.6299 -14.1699v-128.93h-175.99z" />
    <glyph glyph-name="caret-right-primary" unicode="&#xf0da;" horiz-adv-x="192" 
d="M8 192v128.93c0 17.8506 22.4805 26.8008 35.6299 14.1699l134.271 -128.92c0.269531 -0.259766 0.540039 -0.529297 0.799805 -0.80957c2.92578 -3.09473 5.2998 -9.0625 5.2998 -13.3213v-0.0488281h-176z" />
    <glyph glyph-name="columns-primary" unicode="&#xf0db;" 
d="M464 416c26.4961 0 48 -21.5039 48 -48v-352c0 -26.4961 -21.5039 -48 -48 -48h-416c-26.4961 0 -48 21.5039 -48 48v352c0 26.4961 21.5039 48 48 48h416zM224 32v256h-160v-256h160zM448 32v256h-160v-256h160z" />
    <glyph glyph-name="sort-primary" unicode="&#xf0dc;" horiz-adv-x="288" 
d="M8.07031 264.95l119.1 119c3.86914 3.8916 11.4629 7.0498 16.9502 7.0498s13.0811 -3.1582 16.9502 -7.0498l119 -119c15.0996 -15.1006 4.39941 -41 -17 -41h-238c-21.4004 0 -32.0703 25.8994 -17 41z" />
    <glyph glyph-name="sort-down-primary" unicode="&#xf0dd;" horiz-adv-x="320" 
 />
    <glyph glyph-name="sort-up-primary" unicode="&#xf0de;" horiz-adv-x="320" 
 />
    <glyph glyph-name="envelope-primary" unicode="&#xf0e0;" 
d="M512 317v-52.3604c-24.46 -19.1699 -169.4 -125.34 -173 -128.12c-22.1201 -17.0996 -52.4297 -40.5195 -82.5303 -40.5195h-0.939453c-30.1006 0 -60.4102 23.4199 -82.54 40.5195c-3.60059 2.78027 -148.221 108.78 -172.99 128.15v52.3301
c0.00878906 -6.44824 4.12988 -14.915 9.2002 -18.9004c30.5996 -23.8994 40.7002 -32.3994 173.399 -128.699c16.6904 -12.1201 49.75 -41.4004 72.9307 -41.4004h0.939453c23.1807 0 56.2402 29.2803 72.9307 41.4004c132.699 96.2998 142.8 104.699 173.399 128.699
c5.0791 3.9668 9.2002 12.416 9.2002 18.8594v0.0410156z" />
    <glyph glyph-name="undo-primary" unicode="&#xf0e2;" 
d="M11.6504 448h48c6.27246 -0.333008 11.3633 -5.70215 11.3633 -11.9834c0 -0.15625 -0.00585938 -0.410156 -0.0136719 -0.566406l-7.41992 -147.21l147.54 7.05957h0.580078c6.62402 0 12 -5.37598 12 -12v-47.2998c0 -6.62402 -5.37598 -12 -12 -12h-200
c-6.62402 0 -12 5.37598 -12 12v200v0c0 6.59668 5.35352 11.9727 11.9502 12z" />
    <glyph glyph-name="gavel-primary" unicode="&#xf0e3;" 
d="M169 150.63l45.21 -45.2598c5.17285 -5.17383 9.37012 -15.3096 9.37012 -22.625s-4.19727 -17.4521 -9.37012 -22.625l-114.52 -114.75c-5.16113 -5.1709 -15.2793 -9.36719 -22.585 -9.36719c-7.30664 0 -17.4248 4.19629 -22.5859 9.36719l-45.1699 45.2598
c-5.17188 5.17383 -9.37012 15.3096 -9.37012 22.625s4.19824 17.4521 9.37012 22.625l114.49 114.75c5.16016 5.1709 15.2754 9.36719 22.5801 9.36719s17.4199 -4.19629 22.5801 -9.36719zM176.49 259.95l-22.5498 22.6299
c-3.87988 3.87988 -7.0293 11.4824 -7.0293 16.9697s3.14941 13.0898 7.0293 16.9697l124.18 124.48c3.87012 3.87988 11.46 7.02832 16.9395 7.02832c5.48047 0 13.0693 -3.14844 16.9404 -7.02832l22.6104 -22.6602c3.87988 -3.87988 7.02832 -11.4824 7.02832 -16.9697
s-3.14844 -13.0898 -7.02832 -16.9697l-124.25 -124.45c-3.87012 -3.87891 -11.4561 -7.02734 -16.9355 -7.02734c-5.47852 0 -13.0654 3.14844 -16.9346 7.02734zM504 248.64c3.87988 -3.87988 7.0293 -11.4824 7.0293 -16.9697s-3.14941 -13.0898 -7.0293 -16.9697
l-124.22 -124.45c-3.86914 -3.88379 -11.458 -7.03613 -16.9404 -7.03613c-5.48145 0 -13.0713 3.15234 -16.9395 7.03613l-22.5801 22.6201c-3.87988 3.87988 -7.0293 11.4824 -7.0293 16.9697s3.14941 13.0898 7.0293 16.9697l124.21 124.45
c3.86719 3.88379 11.4541 7.03516 16.9346 7.03516s13.0674 -3.15137 16.9355 -7.03516z" />
    <glyph glyph-name="tachometer-primary" unicode="&#xf0e4;" horiz-adv-x="576" 
d="M283.9 127.59l61.3398 184c3.08496 8.91602 13.2461 16.1533 22.6807 16.1533c13.248 0 24 -10.7529 24 -24c0 -2.07715 -0.515625 -5.36621 -1.15137 -7.34277l-61.3291 -184c12.4512 -10.3936 22.5566 -31.9922 22.5566 -48.2119
c0 -9.55957 -3.97754 -23.9805 -8.87695 -32.1885h-110.24c-4.90234 8.25391 -8.88086 22.7441 -8.88086 32.3447c0 33.1035 26.8271 61.4375 59.8809 63.2451h0.0205078z" />
    <glyph glyph-name="bolt-primary" unicode="&#xf0e7;" horiz-adv-x="320" 
d="M319.93 263.93c-0.00878906 -3.53027 -1.45117 -8.875 -3.21973 -11.9297l-176 -304c-3.83789 -6.55176 -13.1152 -11.8682 -20.708 -11.8682c-13.248 0 -24 10.752 -24 24c0 1.5 0.272461 3.90527 0.608398 5.36816l46.0996 194.5l37.9004 128h115.39
c13.209 -0.0380859 23.9297 -10.79 23.9297 -24v-0.0703125z" />
    <glyph glyph-name="sitemap-primary" unicode="&#xf0e8;" horiz-adv-x="640" 
d="M128 96c17.6641 0 32 -14.3359 32 -32v-96c0 -17.6641 -14.3359 -32 -32 -32h-96c-17.6641 0 -32 14.3359 -32 32v96c0 17.6641 14.3359 32 32 32h96zM384 448c17.6641 0 32 -14.3359 32 -32v-96c0 -17.6641 -14.3359 -32 -32 -32h-128c-17.6641 0 -32 14.3359 -32 32v96
c0 17.6641 14.3359 32 32 32h128zM608 96c17.6641 0 32 -14.3359 32 -32v-96c0 -17.6641 -14.3359 -32 -32 -32h-96c-17.6641 0 -32 14.3359 -32 32v96c0 17.6641 14.3359 32 32 32h96zM368 96c17.6641 0 32 -14.3359 32 -32v-96c0 -17.6641 -14.3359 -32 -32 -32h-96
c-17.6641 0 -32 14.3359 -32 32v96c0 17.6641 14.3359 32 32 32h96z" />
    <glyph glyph-name="umbrella-primary" unicode="&#xf0e9;" horiz-adv-x="576" 
d="M557 155.8c-51.5 54.4004 -107.61 52.5 -158.61 -37c-5.2998 -9.5 -14.8994 -8.59961 -19.6992 0c-2.5 4.40039 -32.2002 73.2002 -90.7002 73.2002c-45.7998 0 -70.5 -37.7998 -90.7002 -73.2002c-4.7998 -8.59961 -14.4004 -9.5 -19.7002 0
c-50.8994 89.4004 -106.59 92 -158.59 37c-10.2002 -9.89941 -20.9004 1.2998 -18.7002 11.4004c29.1904 136.3 137.99 218.2 255.7 230.899v17.9004c0 17.6641 14.3359 32 32 32s32 -14.3359 32 -32v-17.9004c117.3 -12.6992 227.11 -94.5996 255.71 -230.899
c2.2002 -10.1006 -8.40039 -21.4004 -18.71 -11.4004z" />
    <glyph glyph-name="paste-primary" unicode="&#xf0ea;" horiz-adv-x="448" 
d="M296 416c13.248 0 24 -10.752 24 -24v-72h-136c-30.8789 -0.0332031 -55.9668 -25.1211 -56 -56v-232h-104c-13.248 0 -24 10.752 -24 24v336c0 13.248 10.752 24 24 24h80.6104c10.1855 17.6631 35 31.998 55.3896 31.998s45.2041 -14.335 55.3896 -31.998h80.6104z
M160 360c13.248 0 24 10.752 24 24s-10.752 24 -24 24s-24 -10.752 -24 -24s10.752 -24 24 -24z" />
    <glyph glyph-name="lightbulb-primary" unicode="&#xf0eb;" horiz-adv-x="352" 
d="M96.0596 -6.34961l-0.0595703 38.3496h160v-38.3496c-0.0253906 -5.32129 -2.44922 -13.2285 -5.41016 -17.6504l-17.0898 -25.7305c-5.24219 -7.87695 -17.1768 -14.2695 -26.6396 -14.2695v0h-61.71c-9.46484 0.00195312 -21.3994 6.39941 -26.6406 14.2803
l-17.0898 25.7197c-2.94531 4.42578 -5.34668 12.333 -5.36035 17.6504z" />
    <glyph glyph-name="exchange-primary" unicode="&#xf0ec;" 
d="M0 280v16c0 13.248 10.752 24 24 24h382l-30.5 27.7305c-4.13965 3.91895 -7.5 11.7266 -7.5 17.4277c0 5.48828 3.14941 13.0918 7.03027 16.9717l10.8398 10.8701c3.87988 3.87988 11.4824 7.0293 16.9697 7.0293s13.0898 -3.14941 16.9697 -7.0293l82.8203 -82.3398
c5.1748 -5.17383 9.375 -15.3125 9.375 -22.6299c0 -7.31836 -4.2002 -17.4561 -9.375 -22.6299l-82.8203 -82.4004c-3.87988 -3.87988 -11.4824 -7.0293 -16.9697 -7.0293s-13.0898 3.14941 -16.9697 7.0293l-10.8701 10.8701
c-3.88086 3.87988 -7.03027 11.4834 -7.03027 16.9717c0 5.70117 3.36035 13.5088 7.5 17.4277l30.5303 27.7305h-382c-13.248 0 -24 10.752 -24 24z" />
    <glyph glyph-name="cloud-download-primary" unicode="&#xf0ed;" horiz-adv-x="640" 
d="M397.7 128.4l-92.7002 -92.7002c-3.86914 -3.8916 -11.4619 -7.05078 -16.9502 -7.05078c-5.4873 0 -13.0811 3.15918 -16.9502 7.05078l-92.6992 92.7002c-3.89258 3.86816 -7.05078 11.4619 -7.05078 16.9492c0 5.48828 3.1582 13.082 7.05078 16.9502l10.7998 10.7998
c3.8916 3.87988 11.5107 7.02832 17.0059 7.02832c5.72266 0 13.5596 -3.37207 17.4941 -7.52832l32.3994 -34.5v125.9v0.0605469c0 13.2148 10.7256 23.9395 23.9404 23.9395h0.0595703h16h0.0605469c13.2148 0 23.9395 -10.7246 23.9395 -23.9395v-0.0605469v-125.9
l32.4004 34.5c3.92383 4.17773 11.7607 7.56738 17.4922 7.56738c5.50391 0 13.124 -3.16602 17.0078 -7.06738l10.7998 -10.7998c3.80078 -3.88965 6.88574 -11.46 6.88574 -16.8994c0 -5.48438 -3.12988 -13.1006 -6.98535 -17z" />
    <glyph glyph-name="cloud-upload-primary" unicode="&#xf0ee;" horiz-adv-x="640" 
d="M397.7 157.7l-10.7998 -10.7998c-3.89258 -3.87988 -11.5117 -7.02832 -17.0068 -7.02832c-5.72266 0 -13.5596 3.37207 -17.4932 7.52832l-32.4004 34.5v-125.9v-0.0605469c0 -13.2148 -10.7246 -23.9395 -23.9395 -23.9395h-0.0605469h-16h-0.0605469
c-13.2148 0 -23.9395 10.7246 -23.9395 23.9395v0.0605469v125.9l-32.4004 -34.5c-3.92383 -4.17773 -11.7598 -7.56738 -17.4912 -7.56738c-5.50488 0 -13.125 3.16602 -17.0088 7.06738l-10.7998 10.7998c-3.8916 3.86816 -7.0498 11.4619 -7.0498 16.9502
c0 5.4873 3.1582 13.0811 7.0498 16.9492l92.7002 92.7002c3.86914 3.8916 11.4619 7.05078 16.9502 7.05078c5.4873 0 13.0811 -3.15918 16.9502 -7.05078l92.6992 -92.7002c3.89746 -3.88281 7.05957 -11.499 7.05957 -17c0 -5.45508 -3.11816 -13.0264 -6.95898 -16.8994
z" />
    <glyph glyph-name="user-md-primary" unicode="&#xf0f0;" horiz-adv-x="448" 
d="M319.8 159.85c70.7432 -3.28711 128.177 -63.4307 128.2 -134.25v-41.5996c0 -26.4961 -21.5039 -48 -48 -48h-352c-26.4961 0 -48 21.5039 -48 48v41.5996c0.0234375 62.6826 50.1992 122.056 112 132.53v-80.7295c-22.0801 -6.58301 -40 -30.626 -40 -53.666
c0 -30.9121 25.0879 -56 56 -56s56 25.0879 56 56c0 23.04 -17.9199 47.083 -40 53.666v82.5996h7.09961c19.1455 -8.83008 51.7939 -15.9971 72.877 -15.9971c18.3125 0 46.9951 5.46875 64.0234 12.207v-70.4102c-28.2002 -7.5 -48 -34.5 -48 -64.5996v-29.2002
c0.0117188 -3.65332 2.11719 -8.71582 4.7002 -11.2998l10.2998 -10.2998c1.29297 -1.29004 3.82422 -2.33691 5.65039 -2.33691c1.8252 0 4.35645 1.04688 5.64941 2.33691l11.2998 11.2998c1.29004 1.29297 2.33691 3.82422 2.33691 5.64941
c0 1.82617 -1.04688 4.35742 -2.33691 5.65039l-5.69922 5.7002v25.2998c0.0585938 17.6826 14.457 32.0332 32.1396 32.0332c1.46191 0 3.81836 -0.194336 5.25977 -0.433594c15.7002 -2.59961 26.6006 -17.3994 26.6006 -33.2998v-23.5996l-5.7002 -5.7002
c-1.29004 -1.29297 -2.33691 -3.82422 -2.33691 -5.65039c0 -1.8252 1.04688 -4.35645 2.33691 -5.64941l11.2998 -11.2998c1.29297 -1.29004 3.82422 -2.33691 5.65039 -2.33691c1.8252 0 4.35645 1.04688 5.64941 2.33691l10.2998 10.2998
c2.58301 2.58398 4.68848 7.64648 4.7002 11.2998v32c-0.0908203 27.2539 -21.5947 54.8506 -48 61.5996v74.25zM104 24v0.0605469c0 13.2148 10.7246 23.9395 23.9395 23.9395h0.0605469c13.248 0 24 -10.752 24 -24s-10.752 -24 -24 -24s-24 10.752 -24 24z" />
    <glyph glyph-name="stethoscope-primary" unicode="&#xf0f1;" 
d="M448 336c35.3281 0 64 -28.6719 64 -64s-28.6719 -64 -64 -64s-64 28.6719 -64 64s28.6719 64 64 64zM448 256c8.83203 0 16 7.16797 16 16s-7.16797 16 -16 16s-16 -7.16797 -16 -16s7.16797 -16 16 -16zM300.7 434.93c10.6377 -2.12402 19.2842 -12.6523 19.2998 -23.5
v-155.43c0 -88.2197 -71.7803 -160 -160 -160s-160 71.7803 -160 160v155.43c0.0175781 10.8535 8.66406 21.4121 19.2998 23.5703l62.7998 12.4297c1.29004 0.259766 3.4043 0.469727 4.7207 0.469727c10.8447 0 21.3643 -8.63281 23.4795 -19.2695l3.10059 -15.7002
c0.258789 -1.28906 0.469727 -3.4043 0.469727 -4.71973c0 -10.8457 -8.63281 -21.3643 -19.2705 -23.4795l-30.6992 -6.10059v-50.6299l0.0996094 -72c0 -52.9922 43.0078 -96 96 -96s96 43.0078 96 96l-0.0996094 122.7l-30.7002 6.09961
c-10.6367 2.11621 -19.2705 12.6348 -19.2705 23.4805c0 1.31543 0.210938 3.42969 0.470703 4.71973l3.19922 15.7305c2.11621 10.6367 12.6348 19.2695 23.4805 19.2695c1.31543 0 3.42969 -0.210938 4.71973 -0.469727z" />
    <glyph glyph-name="suitcase-primary" unicode="&#xf0f2;" 
d="M336 416c26.4961 0 48 -21.5039 48 -48v-400h-256v400c0 26.4961 21.5039 48 48 48h160zM320 320v32h-128v-32h128zM464 320c26.4961 0 48 -21.5039 48 -48v-256c0 -26.4961 -21.5039 -48 -48 -48h-32v352h32zM0 272c0 26.4961 21.5039 48 48 48h32v-352h-32
c-26.4961 0 -48 21.5039 -48 48v256z" />
    <glyph glyph-name="bell-primary" unicode="&#xf0f3;" horiz-adv-x="448" 
d="M173 0h128c0 -35.3281 -28.6719 -64 -64 -64s-64 28.6719 -64 64z" />
    <glyph glyph-name="coffee-primary" unicode="&#xf0f4;" horiz-adv-x="640" 
d="M512.06 416c70.6562 0 128 -57.3438 128 -128s-57.3438 -128 -128 -128h-32c0 -52.9922 -43.0078 -96 -96 -96h-192c-52.9912 0 -96 43.0078 -96 96v232v0.0605469c0 13.2148 10.7256 23.9395 23.9404 23.9395h0.0595703h392zM512.06 224c35.3281 0 64 28.6719 64 64
s-28.6719 64 -64 64h-32v-128h32z" />
    </font>
</defs>
</svg>
